Ивановский Торрент трекер
Яндекс.Погода
 

[Цитировать]
HUNTER

| BDRip-AVC, 1.46/1.78 GB |- P R E S E N T SХолодное сердце / Frozen- Страна: США
Жанр: мультфильм, мюзикл, приключения, семейный
Продолжительность: 01:42:13
Год выпуска: 2013
Перевод: Профессиональный (полное дублирование)
Субтитры: есть-Режиссёр: Крис Бак, Дженнифер Ли / Chris Buck , Jennifer Lee
Роли озвучивали: Кристен Белл, Идина Мензел, Джонатан Грофф, Джош Гад, Сантино Фонтана, Алан Тьюдик, Киаран Хайндс, Крис Уильямс, Стивен Дж. Андерсон, Майа Уилсон, Эди МакКлёрг, Роберт Пайн, Морис ЛаМарш, Ливвай Штубенраух, Ева Белла...
Роли дублировали: Наталия Быстрова, Анна Бутурлина, Андрей Бирин, Сергей Пенкин, Дима Билан, Владимир Рыбальченко, Сергей Чихачев, Анастасия Лапина и др.- | | -Описание: Когда древнее предсказание сбывается и королевство погружается в объятия вечной зимы, трое бесстрашных героев - принцесса Анна, отважный Кристофф и его верный олень Свен - отправляются в горы, чтобы найти сестру Анны, Эльзу, которая может снять со страны леденящее заклятие. По пути их ждет множество увлекательных сюрпризов и захватывающих приключений: встреча с мистическими троллями, знакомство с очаровательным снеговиком по имени Олаф, горные вершины покруче Эвереста и магия в каждой снежинке. Анне и Кристоффу предстоит сплотиться и противостоять могучей стихии, чтобы спасти королевство и тех, кто им дорог...-Доп. информация: BDRip-AVC сделан с Blu-Ray диска Frozen (2013) Blu-ray CEE 1080p AVC DD5.1-HDClub (Локализованный видеоряд).
Отдельное спасибо xfiles за подготовку русских субтитров.
Размер рипа без оригинальной английской звуковой дорожки - 1.46 GB.
-Сэмпл/Sample (12.8 MB, 1 минута)-Качество: BDRip-AVC
Формат: MKV
Видео: 998x446 (2.24:1), 23,976 fps, ~1593 kbps avg, 0.149 bit/pixel
Аудио #1: Русский, AC3, 6 ch, 48 kHz, 448 kbps - Дубляж | BD CEE
Аудио #2: English, AC3, 6 ch, 48 kHz, 448 kbps - Original | Отдельным файлом
Субтитры: Русские (полные), English (Full, SDH)
Навигация по главам: есть (16 именованных глав)

MediaInfo / x264Log

x264Log

raw [info]: 998x446p 1:1 @ 24000/1001 fps (cfr)x264 [info]: using SAR=1/1x264 [info]: using cpu capabilities: MMX2 SSE2Fast SSSE3 SSE4.2 AVX XOP FMA4 FMA3 LZCNT BMI1x264 [info]: profile High, level 4.1x264 [info]: frame I:1192 Avg QP:14.28 size: 60675 PSNR Mean Y:48.94 U:51.71 V:52.15 Avg:49.55 Global:48.77x264 [info]: frame P:40369 Avg QP:18.65 size: 14348 PSNR Mean Y:46.75 U:51.74 V:52.55 Avg:47.51 Global:46.66x264 [info]: frame B:105484 Avg QP:21.05 size: 5401 PSNR Mean Y:46.67 U:50.31 V:50.93 Avg:47.41 Global:46.24x264 [info]: consecutive B-frames: 4.6% 3.7% 24.5% 25.9% 14.9% 20.6% 2.6% 1.6% 0.5% 0.2% 0.2% 0.2% 0.1% 0.1% 0.4%x264 [info]: mb I I16..4: 6.6% 61.3% 32.2%x264 [info]: mb P I16..4: 0.9% 8.7% 2.2% P16..4: 24.2% 23.6% 9.5% 2.2% 0.3% skip:28.4%x264 [info]: mb B I16..4: 0.2% 1.9% 0.3% B16..8: 24.3% 14.0% 2.7% direct: 3.0% skip:53.5% L0:38.1% L1:46.8% BI:15.1%x264 [info]: 8x8 transform intra:73.7% inter:51.9%x264 [info]: coded y,uvDC,uvAC intra: 83.3% 77.8% 57.5% inter: 13.1% 10.7% 3.2%x264 [info]: i16 v,h,dc,p: 16% 14% 7% 63%x264 [info]: i8 v,h,dc,ddl,ddr,vr,hd,vl,hu: 9% 12% 7% 8% 12% 10% 14% 11% 17%x264 [info]: i4 v,h,dc,ddl,ddr,vr,hd,vl,hu: 11% 10% 7% 8% 14% 12% 13% 10% 13%x264 [info]: i8c dc,h,v,p: 33% 32% 19% 17%x264 [info]: Weighted P-Frames: Y:3.8% UV:2.5%x264 [info]: ref P L0: 56.1% 8.8% 13.8% 6.1% 4.2% 3.2% 2.5% 1.5% 1.1% 1.0% 0.8% 0.7% 0.2% 0.0%x264 [info]: ref B L0: 79.5% 9.8% 4.4% 2.0% 1.4% 1.0% 0.8% 0.4% 0.4% 0.2% 0.1%x264 [info]: ref B L1: 93.2% 6.8%x264 [info]: SSIM Mean Y:0.9890252 (19.596db)x264 [info]: PSNR Mean Y:46.713 U:50.718 V:51.383 Avg:47.451 Global:46.371 kb/s:1592.98encoded 147045 frames, 15.23 fps, 1592.98 kb/s
GeneralUnique ID : 195939019010191559556603335640860698144 (0x93687B7E78D196AC97BF62BF3565A620)Complete name : Frozen.2013.Rus.BDRip-AVC.446p.dfcbit.mkvFormat : MatroskaFormat version : Version 2File size : 1.46 GiBDuration : 1h 42mnOverall bit rate : 2 043 KbpsEncoded date : UTC 2014-03-31 15:16:56Writing application : mkvmerge v4.0.0 ('The Stars were mine') built on Jun 6 2010 16:18:42Writing library : libebml v1.0.0 + libmatroska v1.0.0
VideoID : 1Format : AVCFormat/Info : Advanced Video CodecFormat profile : High@L4.1Format settings, CABAC : YesFormat settings, ReFrames : 12 framesCodec ID : V_MPEG4/ISO/AVCDuration : 1h 42mnBit rate : 1 593 KbpsWidth : 998 pixelsHeight : 446 pixelsDisplay aspect ratio : 2.25:1Frame rate mode : ConstantFrame rate : 23.976 fpsColor space : YUVChroma subsampling : 4:2:0Bit depth : 8 bitsScan type : ProgressiveBits/(Pixel*Frame) : 0.149Stream size : 1.14 GiB (76%)Title : NTSC, 998x446 (2.24:1), BDRip-AVC 446p - tRuAVC & Multfilmy [DFCbit]Writing library : x264 core 142 r2409kMod d6b4e63Encoding settings : cabac=1 / ref=12 / deblock=1:-2:-1 / analyse=0x3:0x133 / me=umh / subme=11 / psy=1 / fade_compensate=0.00 / psy_rd=0.63:0.00 / mixed_ref=1 / me_range=32 / chroma_me=1 / trellis=2 / 8x8dct=1 / cqm=0 / deadzone=21,11 / fast_pskip=0 / chroma_qp_offset=-2 / threads=12 / lookahead_threads=3 / sliced_threads=0 / nr=0 / decimate=1 / interlaced=0 / bluray_compat=0 / constrained_intra=0 / fgo=0 / bframes=14 / b_pyramid=2 / b_adapt=2 / b_bias=0 / direct=1 / weightb=1 / open_gop=0 / weightp=2 / keyint=250 / keyint_min=23 / scenecut=40 / intra_refresh=0 / rc_lookahead=70 / rc=2pass / mbtree=0 / bitrate=1593 / ratetol=1.0 / qcomp=0.81 / qpmin=0 / qpmax=69 / qpstep=4 / cplxblur=20.0 / qblur=0.5 / vbv_maxrate=25000 / vbv_bufsize=50000 / nal_hrd=none / filler=0 / ip_ratio=1.40 / pb_ratio=1.30 / aq=3:0.90Language : RussianDefault : YesForced : NoColor primaries : BT.709Transfer characteristics : BT.709Matrix coefficients : BT.709
AudioID : 2Format : AC-3Format/Info : Audio Coding 3Mode extension : CM (complete main)Format settings, Endianness : BigCodec ID : A_AC3Duration : 1h 42mnBit rate mode : ConstantBit rate : 448 KbpsChannel(s) : 6 channelsChannel positions : Front: L C R, Side: L R, LFESampling rate : 48.0 KHzBit depth : 16 bitsCompression mode : LossyStream size : 328 MiB (22%)Title : AC3, 6 ch, 48 kHz, 448 kbps - Дубляж | BD CEELanguage : RussianDefault : YesForced : No
Text #1ID : 3Format : UTF-8Codec ID : S_TEXT/UTF8Codec ID/Info : UTF-8 Plain TextTitle : SRT, FullLanguage : RussianDefault : NoForced : No
Text #2ID : 4Format : UTF-8Codec ID : S_TEXT/UTF8Codec ID/Info : UTF-8 Plain TextTitle : SRT, FullLanguage : EnglishDefault : NoForced : No
Text #3ID : 5Format : UTF-8Codec ID : S_TEXT/UTF8Codec ID/Info : UTF-8 Plain TextTitle : SRT, (SDH)Language : EnglishDefault : NoForced : No
Menu00:00:00.000 : ru:1. Несчастный случай00:05:59.818 : ru:2. Скрывая свои силы00:11:37.947 : ru:3. День коронации00:19:53.734 : ru:4. Влюблённость00:31:03.195 : ru:5. Поиски Эльзы00:38:39.484 : ru:6. Попутчик00:44:21.284 : ru:7. Олаф00:50:51.507 : ru:8. Эльза найдена00:57:48.381 : ru:9. Снежный монстр01:02:57.399 : ru:10. Семья01:09:36.047 : ru:11. Возвращение01:13:34.869 : ru:12. Предательство01:18:07.599 : ru:13. Что такое любовь?01:22:33.740 : ru:14. Знак истинной любви01:27:10.809 : ru:15. Открытые ворота01:32:33.506 : ru:16. Финальные титры

Скриншоты

Локализация
--BDRip-AVC


Source Blu-Ray

Релиз от групп | and | -Данный релиз не будет воспроизводиться на бытовых плеерах не поддерживающих MKV и H.264 Обсуждение релизов в AVC формате || Свежие AVC рипы
Показать сообщения:    

Текущее время: 23-Окт 10:49

Часовой пояс: UTC - 1


Вы не можете начинать темы
Вы не можете отвечать на сообщения
Вы не можете редактировать свои сообщения
Вы не можете удалять свои сообщения
Вы не можете голосовать в опросах
Вы не можете прикреплять файлы к сообщениям
Вы не можете скачивать файлы

!ВНИМАНИЕ!
Сайт не предоставляет электронные версии произведений, а занимается лишь коллекционированием и каталогизацией ссылок, присылаемых и публикуемых на форуме нашими читателями. Если вы являетесь правообладателем какого-либо представленного материала и не желаете, чтобы ссылка на него находилась в нашем каталоге, свяжитесь с нами, и мы незамедлительно удалим ее. Файлы для обмена на трекере предоставлены пользователями сайта, и администрация не несет ответственности за их содержание. Просьба не заливать файлы, защищенные авторскими правами, а также файлы нелегального содержания!