Важное объявление!
У Нас Все раздачи мультитрекерные, при нуле пиров в релизах, можете смело вставать на закачку!
Статистика раздачи
Размер:     |    Зарегистрирован:     |    Скачан:     |   
Нет
 
     
 
 
Автор Сообщение

HUNTER

Стаж:
5 лет
Сообщений:
67958

Репутация: 101

[+] [-]
Вне форума [Профиль] [ЛС]

WRC 2014. Этап 10. Австралия. Обзор этапа
Вид спорта: Ралли
Дата/Год выпуска: 12.09.14
Язык комментариев: немецкий
Автор записи: SashaR.
Качество: DVB-S2 Remux
Формат видео: TS
Видео: AVC, 1920x1080, 16:9, 8 802 Kbps, 25 fps
Аудио: MP2, 160/448 Kbps, 48.0 kHz, 2 channels

Media Info

E:\Раздачи\WRC 2014. Этап 10. Австралия. Обзор этапа.ts
General #11
ID : 11 (0xB)
Complete name : E:\Раздачи\WRC 2014. Этап 10. Австралия. Обзор этапа.ts
Format : MPEG-TS
File size : 8.30 GiB
Duration : 2h 2mn
Overall bit rate mode : Variable
Overall bit rate : 9 668 Kbps
Video #1279
ID : 1279 (0x4FF)
Menu ID : 122 (0x7A)
Format : AVC
Format/Info : Advanced Video Codec
Format profile : High@L4.0
Format settings, CABAC : Yes
Format settings, ReFrames : 3 frames
Codec ID : 27
Duration : 2h 2mn
Bit rate : 8 802 Kbps
Width : 1 920 pixels
Height : 1 080 pixels
Display aspect ratio : 16:9
Frame rate : 25.000 fps
Standard : Component
Color space : YUV
Chroma subsampling : 4:2:0
Bit depth : 8 bits
Scan type : Interlaced
Scan order : Top Field First
Bits/(Pixel*Frame) : 0.170
Stream size : 7.56 GiB (91%)
Color primaries : BT.709
Transfer characteristics : BT.709
Matrix coefficients : BT.709
Audio #1283
ID : 1283 (0x503)
Menu ID : 122 (0x7A)
Format : AC-3
Format/Info : Audio Coding 3
Mode extension : CM (complete main)
Format settings, Endianness : Big
Codec ID : 6
Duration : 2h 2mn
Bit rate mode : Constant
Bit rate : 384 Kbps
Channel count : 2 channels
Channel positions : Front: L R
Sampling rate : 48.0 KHz
Bit depth : 16 bits
Compression mode : Lossy
Delay relative to video : 148ms
Stream size : 338 MiB (4%)
Language : German
Language, more info : Clean effects

Продолжительность

02:02:57

Скриншоты


_________________
Показать сообщения:    

Текущее время: Сегодня 22:51

Часовой пояс: GMT



Вы не можете начинать темы
Вы не можете отвечать на сообщения
Вы не можете редактировать свои сообщения
Вы не можете удалять свои сообщения
Вы не можете голосовать в опросах
Вы не можете прикреплять файлы к сообщениям
Вы не можете скачивать файлы