Ивановский Торрент трекер
Яндекс.Погода
 

[Цитировать]
HUNTER

WRC - 2015. Этап 04. Rally Argentina. Sport 1+ HD
Вид спорта: Ралли
Дата/Год выпуска: 24.04.15
Язык комментариев: немецкий
Автор записи: SashaR.
Качество: DVB-S2 Remux
Формат видео: TS
Видео: AVC, 1920x1080, 16:9, 9 474 Kbps, 25 fps
Аудио: AC-3, 384 Kbps, 48.0 kHz, 2 channels

Media Info

H:\Раздачи\WRC. 2015. Этап 4. Rally Argentina\SS 6 (live).ts
General #6
ID : 6 (0x6)
Complete name : H:\Раздачи\WRC. 2015. Этап 4. Rally Argentina\SS 6 (live).ts
Format : MPEG-TS
File size : 4.24 GiB
Duration : 58mn 29s
Overall bit rate mode : Variable
Overall bit rate : 10.4 Mbps
Video #1279
ID : 1279 (0x4FF)
Menu ID : 122 (0x7A)
Format : AVC
Format/Info : Advanced Video Codec
Format profile : High@L4.0
Format settings, CABAC : Yes
Format settings, ReFrames : 3 frames
Codec ID : 27
Duration : 58mn 28s
Bit rate : 9 474 Kbps
Width : 1 920 pixels
Height : 1 080 pixels
Display aspect ratio : 16:9
Frame rate : 25.000 fps
Standard : Component
Color space : YUV
Chroma subsampling : 4:2:0
Bit depth : 8 bits
Scan type : Interlaced
Scan order : Top Field First
Bits/(Pixel*Frame) : 0.183
Stream size : 3.87 GiB (91%)
Color primaries : BT.709
Transfer characteristics : BT.709
Matrix coefficients : BT.709
Audio #1283
ID : 1283 (0x503)
Menu ID : 122 (0x7A)
Format : AC-3
Format/Info : Audio Coding 3
Mode extension : CM (complete main)
Format settings, Endianness : Big
Codec ID : 6
Duration : 58mn 28s
Bit rate mode : Constant
Bit rate : 384 Kbps
Channel count : 2 channels
Channel positions : Front: L R
Sampling rate : 48.0 KHz
Bit depth : 16 bits
Compression mode : Lossy
Delay relative to video : 52ms
Stream size : 161 MiB (4%)
Language : German
Language, more info : Clean effects

Продолжительность

SS6 - 00:58:29
Пролог - 00:22:53

Скриншоты



Показать сообщения:    

Текущее время: 11-Дек 17:13

Часовой пояс: UTC ± 0


Вы не можете начинать темы
Вы не можете отвечать на сообщения
Вы не можете редактировать свои сообщения
Вы не можете удалять свои сообщения
Вы не можете голосовать в опросах
Вы не можете прикреплять файлы к сообщениям
Вы не можете скачивать файлы

!ВНИМАНИЕ!
Сайт не предоставляет электронные версии произведений, а занимается лишь коллекционированием и каталогизацией ссылок, присылаемых и публикуемых на форуме нашими читателями. Если вы являетесь правообладателем какого-либо представленного материала и не желаете, чтобы ссылка на него находилась в нашем каталоге, свяжитесь с нами, и мы незамедлительно удалим ее. Файлы для обмена на трекере предоставлены пользователями сайта, и администрация не несет ответственности за их содержание. Просьба не заливать файлы, защищенные авторскими правами, а также файлы нелегального содержания!