Важное объявление!
У Нас Все раздачи мультитрекерные, при нуле пиров в релизах, можете смело вставать на закачку!
 
Автор Сообщение

HUNTER

Стаж:
4 года 4 месяца
Сообщений:
56808

Репутация: 101

[+] [-]
Вне форума [Профиль] [ЛС]

World Touring Car Championship (WTCC) / Этап 11 / Япония / Квалификация, Гонка 1-2
Вид спорта: Автогонки
Дата/Год выпуска: 26.10.14
Язык комментариев: русский, английский
Автор записи: SashaR.
Качество: DVB-S2 Remux
Формат видео: TS
Видео: AVC, 1920x1080, 16:9, 8 585 Kbps, 25 fps
Аудио: MP2, 192 kbps, 48 kHz, 2 channels
Аудио: MP2, 192 kbps, 48 kHz, 2 channels

Media Info

F:\Раздачи\World Touring Car Championship (WTCC). Этап 11. Япония\Гонка 1 & 2.ts
General #6
ID : 6 (0x6)
Complete name : F:\Раздачи\World Touring Car Championship (WTCC). Этап 11. Япония\Гонка 1 & 2.ts
Format : MPEG-TS
File size : 7.83 GiB
Duration : 1h 58mn
Overall bit rate mode : Variable
Overall bit rate : 9 439 Kbps
Video #324
ID : 324 (0x144)
Menu ID : 12104 (0x2F48)
Format : AVC
Format/Info : Advanced Video Codec
Format profile : High@L4.0
Format settings, CABAC : Yes
Format settings, ReFrames : 4 frames
Codec ID : 27
Duration : 1h 58mn
Bit rate : 8 585 Kbps
Width : 1 920 pixels
Height : 1 080 pixels
Display aspect ratio : 16:9
Frame rate : 25.000 fps
Standard : Component
Color space : YUV
Chroma subsampling : 4:2:0
Bit depth : 8 bits
Scan type : Interlaced
Scan order : Top Field First
Bits/(Pixel*Frame) : 0.166
Stream size : 7.12 GiB (91%)
Color primaries : BT.709
Transfer characteristics : BT.709
Matrix coefficients : BT.709
Audio #404
ID : 404 (0x194)
Menu ID : 12104 (0x2F48)
Format : MPEG Audio
Format version : Version 1
Format profile : Layer 2
Codec ID : 4
Duration : 1h 58mn
Bit rate mode : Constant
Bit rate : 192 Kbps
Channel count : 2 channels
Sampling rate : 48.0 KHz
Compression mode : Lossy
Delay relative to video : 120ms
Stream size : 163 MiB (2%)
Language : Russian
Language, more info : Clean effects
Audio #424
ID : 424 (0x1A8)
Menu ID : 12104 (0x2F48)
Format : MPEG Audio
Format version : Version 1
Format profile : Layer 2
Codec ID : 4
Duration : 1h 58mn
Bit rate mode : Constant
Bit rate : 192 Kbps
Channel count : 2 channels
Sampling rate : 48.0 KHz
Compression mode : Lossy
Delay relative to video : 48ms
Stream size : 163 MiB (2%)
Language, more info : Clean effects

Продолжительность

Гонка 1 & 2 - 01:48:41
Q3 - 00:22:38

Скриншоты


_________________
Показать сообщения:    

Текущее время: Сегодня 09:33

Часовой пояс: GMT



Вы не можете начинать темы
Вы не можете отвечать на сообщения
Вы не можете редактировать свои сообщения
Вы не можете удалять свои сообщения
Вы не можете голосовать в опросах
Вы не можете прикреплять файлы к сообщениям
Вы не можете скачивать файлы