Важное объявление!
У Нас Все раздачи мультитрекерные, при нуле пиров в релизах, можете смело вставать на закачку!
 
Автор Сообщение

HUNTER

Стаж:
4 года 4 месяца
Сообщений:
56822

Репутация: 101

[+] [-]
Вне форума [Профиль] [ЛС]

World Touring Car Championship (WTCC) 2015 / Этап 04 / Germany / Eurosport HD
Вид спорта: Автогонки
Дата/Год выпуска: 15-16.05.15
Язык комментариев: русский
Автор записи: SashaR.
Качество: DVB-S2 Remux
Формат видео: TS
Видео: AVC, 1920x1080, 16:9, 7 959 Kbps, 25 fps
Аудио: MP2, 192 Kbps, 48.0 kHz, 2 channels

Media Info

H:\Раздачи\World Touring Car Championship (WTCC) 2015. Этап 04. Nurburgring Nordschleife (Germany)\Warm-Up.ts
General #6
ID : 6 (0x6)
Complete name : H:\Раздачи\World Touring Car Championship (WTCC) 2015. Этап 04. Nurburgring Nordschleife (Germany)\Warm-Up.ts
Format : MPEG-TS
File size : 2.69 GiB
Duration : 44mn 55s
Overall bit rate mode : Variable
Overall bit rate : 8 576 Kbps
Video #324
ID : 324 (0x144)
Menu ID : 12104 (0x2F48)
Format : AVC
Format/Info : Advanced Video Codec
Format profile : Main@L4.0
Format settings, CABAC : Yes
Format settings, ReFrames : 4 frames
Codec ID : 27
Duration : 44mn 55s
Bit rate : 7 959 Kbps
Width : 1 920 pixels
Height : 1 080 pixels
Display aspect ratio : 16:9
Frame rate : 25.000 fps
Standard : Component
Color space : YUV
Chroma subsampling : 4:2:0
Bit depth : 8 bits
Scan type : Interlaced
Scan order : Top Field First
Bits/(Pixel*Frame) : 0.154
Stream size : 2.50 GiB (93%)
Color primaries : BT.709
Transfer characteristics : BT.709
Matrix coefficients : BT.709
Audio #404
ID : 404 (0x194)
Menu ID : 12104 (0x2F48)
Format : MPEG Audio
Format version : Version 1
Format profile : Layer 2
Codec ID : 4
Duration : 44mn 55s
Bit rate mode : Constant
Bit rate : 192 Kbps
Channel count : 2 channels
Sampling rate : 48.0 KHz
Compression mode : Lossy
Delay relative to video : 49ms
Stream size : 61.7 MiB (2%)
Language : Russian
Language, more info : Clean effects

Продолжительность

Квалификация - 01:09:28
Warm-Up - 00:44:55
Гонка 1 - 00:59:48

Скриншоты


_________________
Показать сообщения:    

Текущее время: Сегодня 22:37

Часовой пояс: GMT



Вы не можете начинать темы
Вы не можете отвечать на сообщения
Вы не можете редактировать свои сообщения
Вы не можете удалять свои сообщения
Вы не можете голосовать в опросах
Вы не можете прикреплять файлы к сообщениям
Вы не можете скачивать файлы