Важное объявление!
У Нас Все раздачи мультитрекерные, при нуле пиров в релизах, можете смело вставать на закачку!
 
Автор Сообщение

HUNTER

Стаж:
4 года 4 месяца
Сообщений:
56853

Репутация: 101

[+] [-]
Вне форума [Профиль] [ЛС]

World Touring Car Championship (WTCC) 2014 / Обзор сезона / Eurosport HD
Вид спорта: Автогонки
Дата/Год выпуска: 09.12.14
Язык комментариев: русский
Автор записи: SashaR.
Качество: DVB-S2 Remux
Формат видео: TS
Видео: AVC, 1920x1080, 16:9, 7 744 Kbps, 25 fps
Аудио: MP2, 192 Kbps, 48.0 kHz, 2 channels

Media Info

G:\Раздачи\World Touring Car Championship (WTCC) 2014. Обзор сезона. Eurosport HD.ts
General #6
ID : 6 (0x6)
Complete name : G:\Раздачи\World Touring Car Championship (WTCC) 2014. Обзор сезона. Eurosport HD.ts
Format : MPEG-TS
File size : 3.07 GiB
Duration : 51mn 24s
Overall bit rate mode : Variable
Overall bit rate : 8 555 Kbps
Video #324
ID : 324 (0x144)
Menu ID : 1 (0x1)
Format : AVC
Format/Info : Advanced Video Codec
Format profile : High@L4.0
Format settings, CABAC : Yes
Format settings, ReFrames : 4 frames
Codec ID : 27
Duration : 51mn 24s
Bit rate : 7 744 Kbps
Width : 1 920 pixels
Height : 1 080 pixels
Display aspect ratio : 16:9
Frame rate : 25.000 fps
Standard : Component
Color space : YUV
Chroma subsampling : 4:2:0
Bit depth : 8 bits
Scan type : Interlaced
Scan order : Top Field First
Bits/(Pixel*Frame) : 0.149
Stream size : 2.78 GiB (91%)
Language : English
Color primaries : BT.709
Transfer characteristics : BT.709
Matrix coefficients : BT.709
Audio #404
ID : 404 (0x194)
Menu ID : 1 (0x1)
Format : MPEG Audio
Format version : Version 1
Format profile : Layer 2
Codec ID : 4
Duration : 51mn 24s
Bit rate mode : Constant
Bit rate : 192 Kbps
Channel count : 2 channels
Sampling rate : 48.0 KHz
Compression mode : Lossy
Delay relative to video : -39ms
Stream size : 70.6 MiB (2%)
Language : German
Audio #424
ID : 424 (0x1A8)
Menu ID : 1 (0x1)
Format : MPEG Audio
Format version : Version 1
Format profile : Layer 2
Codec ID : 4
Duration : 51mn 24s
Bit rate mode : Constant
Bit rate : 192 Kbps
Channel count : 2 channels
Sampling rate : 48.0 KHz
Compression mode : Lossy
Delay relative to video : 81ms
Stream size : 70.6 MiB (2%)
Language : German

Продолжительность

00:51:24

Скриншоты


_________________
Показать сообщения:    

Текущее время: Сегодня 14:15

Часовой пояс: GMT



Вы не можете начинать темы
Вы не можете отвечать на сообщения
Вы не можете редактировать свои сообщения
Вы не можете удалять свои сообщения
Вы не можете голосовать в опросах
Вы не можете прикреплять файлы к сообщениям
Вы не можете скачивать файлы
Наши партнеры: интернет магазин Ивановского трикотажа textilla.ru