Ивановский Торрент трекер
Яндекс.Погода
 

[Цитировать]
HUNTER

World Touring Car Championship (WTCC) 2013 / Этап 10 Япония / EuroSport HD
Вид спорта: Автогонки
Дата/Год выпуска: 22.09.13
Язык комментариев: русский
Автор записи: SashaR.
Качество: DVB-S2 Remux
Формат видео: TS
Видео: AVC, 1920x1080, 16:9, 9 871 Kbps, 25 fps
Аудио: MP2, 192 Kbps, 48.0 kHz, 2 channels

Media Info

J:\WTCC 2013. Этап 10. Сузука (Япония)\Гонка 1.ts
General #6
ID : 6 (0x6)
Complete name : J:\WTCC 2013. Этап 10. Сузука (Япония)\Гонка 1.ts
Format : MPEG-TS
File size : 1.95 GiB
Duration : 26mn 25s
Overall bit rate mode : Variable
Overall bit rate : 10.6 Mbps
Video #324
ID : 324 (0x144)
Menu ID : 12104 (0x2F48)
Format : AVC
Format/Info : Advanced Video Codec
Format profile : High@L4.0
Format settings, CABAC : Yes
Format settings, ReFrames : 3 frames
Codec ID : 27
Duration : 26mn 25s
Bit rate : 9 871 Kbps
Width : 1 920 pixels
Height : 1 080 pixels
Display aspect ratio : 16:9
Frame rate : 25.000 fps
Standard : Component
Color space : YUV
Chroma subsampling : 4:2:0
Bit depth : 8 bits
Scan type : Interlaced
Scan order : Top Field First
Bits/(Pixel*Frame) : 0.190
Stream size : 1.82 GiB (93%)
Color primaries : BT.709
Transfer characteristics : BT.709
Matrix coefficients : BT.709
Audio #404
ID : 404 (0x194)
Menu ID : 12104 (0x2F48)
Format : MPEG Audio
Format version : Version 1
Format profile : Layer 2
Codec ID : 4
Duration : 26mn 25s
Bit rate mode : Constant
Bit rate : 192 Kbps
Channel count : 2 channels
Sampling rate : 48.0 KHz
Compression mode : Lossy
Delay relative to video : 30ms
Stream size : 36.3 MiB (2%)
Language : Russian
Language, more info : Clean effects

Продолжительность

Гонка 1 - 00:26:25
Гонка 2 - 00:21:50

Скриншоты

Показать сообщения:    

Текущее время: 19-Окт 15:37

Часовой пояс: UTC - 1


Вы не можете начинать темы
Вы не можете отвечать на сообщения
Вы не можете редактировать свои сообщения
Вы не можете удалять свои сообщения
Вы не можете голосовать в опросах
Вы не можете прикреплять файлы к сообщениям
Вы не можете скачивать файлы

!ВНИМАНИЕ!
Сайт не предоставляет электронные версии произведений, а занимается лишь коллекционированием и каталогизацией ссылок, присылаемых и публикуемых на форуме нашими читателями. Если вы являетесь правообладателем какого-либо представленного материала и не желаете, чтобы ссылка на него находилась в нашем каталоге, свяжитесь с нами, и мы незамедлительно удалим ее. Файлы для обмена на трекере предоставлены пользователями сайта, и администрация не несет ответственности за их содержание. Просьба не заливать файлы, защищенные авторскими правами, а также файлы нелегального содержания!