Важное объявление!
У Нас Все раздачи мультитрекерные, при нуле пиров в релизах, можете смело вставать на закачку!
 
Автор Сообщение

HUNTER

Стаж:
4 года 7 месяцев
Сообщений:
61428

Репутация: 101

[+] [-]
Вне форума [Профиль] [ЛС]

World Touring Car Championship (WTCC) 2013 / Этап 10 / Япония / Гонка 1-2 / Eurosport HD
Вид спорта: Автогонки
Дата/Год выпуска: 21.09.13
Язык комментариев: русский
Автор записи: SashaR.
Качество: DVB-S2 Remux
Формат видео: TS
Видео: AVC, 1920x1080, 16:9, 9 923 Kbps, 25 fps
Аудио: MP2, 192 Kbps, 48.0 kHz, 2 channels

Media Info

J:\Раздачи\WTCC 2013. Этап 10. Сузука (Япония)\Гонка 2.ts
General #6
ID : 6 (0x6)
Complete name : J:\Раздачи\WTCC 2013. Этап 10. Сузука (Япония)\Гонка 2.ts
Format : MPEG-TS
File size : 3.09 GiB
Duration : 41mn 33s
Overall bit rate mode : Variable
Overall bit rate : 10.6 Mbps
Video #324
ID : 324 (0x144)
Menu ID : 12104 (0x2F48)
Format : AVC
Format/Info : Advanced Video Codec
Format profile : High@L4.0
Format settings, CABAC : Yes
Format settings, ReFrames : 3 frames
Codec ID : 27
Duration : 41mn 32s
Bit rate : 9 923 Kbps
Width : 1 920 pixels
Height : 1 080 pixels
Display aspect ratio : 16:9
Frame rate : 25.000 fps
Standard : Component
Color space : YUV
Chroma subsampling : 4:2:0
Bit depth : 8 bits
Scan type : Interlaced
Scan order : Top Field First
Bits/(Pixel*Frame) : 0.191
Stream size : 2.88 GiB (93%)
Color primaries : BT.709
Transfer characteristics : BT.709
Matrix coefficients : BT.709
Audio #404
ID : 404 (0x194)
Menu ID : 12104 (0x2F48)
Format : MPEG Audio
Format version : Version 1
Format profile : Layer 2
Codec ID : 4
Duration : 41mn 32s
Bit rate mode : Constant
Bit rate : 192 Kbps
Channel count : 2 channels
Sampling rate : 48.0 KHz
Compression mode : Lossy
Delay relative to video : 127ms
Stream size : 57.1 MiB (2%)
Language : Russian
Language, more info : Clean effects

Продолжительность

1-я гонка - 00:32:43
2-я гонка - 00:41:33

Скриншоты


_________________
Показать сообщения:    

Текущее время: Сегодня 16:05

Часовой пояс: GMT



Вы не можете начинать темы
Вы не можете отвечать на сообщения
Вы не можете редактировать свои сообщения
Вы не можете удалять свои сообщения
Вы не можете голосовать в опросах
Вы не можете прикреплять файлы к сообщениям
Вы не можете скачивать файлы
Наши партнеры: интернет магазин Ивановского трикотажа textilla.ru