World Touring Car Championship (WTCC) / Этап 12 / Макао / Квалификация, Гонка 1-2 [16.11.14, Автогонки, DVB-S2 Remux, 1080i, RU] :: Ивановский Торрент трекер
Важное объявление!
У Нас Все раздачи мультитрекерные, при нуле пиров в релизах, можете смело вставать на закачку!
Статистика раздачи
Размер:     |    Зарегистрирован:     |    Скачан:     |   
Нет
 
     
 
 
Автор Сообщение

HUNTER

Стаж:
4 года 11 месяцев
Сообщений:
66098

Репутация: 101

[+] [-]
Вне форума [Профиль] [ЛС]

World Touring Car Championship (WTCC) / Этап 12 / Макао / Квалификация, Гонка 1-2
Вид спорта: Автогонки
Дата/Год выпуска: 16.11.14
Язык комментариев: русский
Автор записи: SashaR.
Качество: DVB-S2 Remux
Формат видео: TS
Видео: AVC, 1920x1080, 16:9, 9 342 Kbps, 25 fps
Аудио: MP2, 192 Kbps, 48.0 kHz, 2 channels
Аудио: MP2, 192 Kbps, 48.0 kHz, 2 channels

Media Info

E:\Раздачи\World Touring Car Championship (WTCC). Этап 12. Макао\Гонка 1 & 2.ts
General #6
ID : 6 (0x6)
Complete name : E:\Раздачи\World Touring Car Championship (WTCC). Этап 12. Макао\Гонка 1 & 2.ts
Format : MPEG-TS
File size : 9.58 GiB
Duration : 2h 13mn
Overall bit rate mode : Variable
Overall bit rate : 10.2 Mbps
Video #324
ID : 324 (0x144)
Menu ID : 12104 (0x2F48)
Format : AVC
Format/Info : Advanced Video Codec
Format profile : High@L4.0
Format settings, CABAC : Yes
Format settings, ReFrames : 4 frames
Codec ID : 27
Duration : 2h 13mn
Bit rate : 9 342 Kbps
Width : 1 920 pixels
Height : 1 080 pixels
Display aspect ratio : 16:9
Frame rate : 25.000 fps
Standard : Component
Color space : YUV
Chroma subsampling : 4:2:0
Bit depth : 8 bits
Scan type : Interlaced
Scan order : Top Field First
Bits/(Pixel*Frame) : 0.180
Stream size : 8.74 GiB (91%)
Color primaries : BT.709
Transfer characteristics : BT.709
Matrix coefficients : BT.709
Audio #404
ID : 404 (0x194)
Menu ID : 12104 (0x2F48)
Format : MPEG Audio
Format version : Version 1
Format profile : Layer 2
Codec ID : 4
Duration : 2h 13mn
Bit rate mode : Constant
Bit rate : 192 Kbps
Channel count : 2 channels
Sampling rate : 48.0 KHz
Compression mode : Lossy
Delay relative to video : 76ms
Stream size : 184 MiB (2%)
Language : Russian
Language, more info : Clean effects
Audio #424
ID : 424 (0x1A8)
Menu ID : 12104 (0x2F48)
Format : MPEG Audio
Format version : Version 1
Format profile : Layer 2
Codec ID : 4
Duration : 2h 13mn
Bit rate mode : Constant
Bit rate : 192 Kbps
Channel count : 2 channels
Sampling rate : 48.0 KHz
Compression mode : Lossy
Delay relative to video : 52ms
Stream size : 184 MiB (2%)
Language : English
Language, more info : Clean effects

Продолжительность

Квалификация - 01:07:00
Гонка 1 & 2 - 02:13:59

Скриншоты


_________________
Показать сообщения:    

Текущее время: Сегодня 14:16

Часовой пояс: GMT



Вы не можете начинать темы
Вы не можете отвечать на сообщения
Вы не можете редактировать свои сообщения
Вы не можете удалять свои сообщения
Вы не можете голосовать в опросах
Вы не можете прикреплять файлы к сообщениям
Вы не можете скачивать файлы