Ивановский Торрент трекер
Яндекс.Погода
 

[Цитировать]
HUNTER

WordPress 4: Пример создания блога (2014)--

  • Год выпуска: 2014
  • Страна: Россия
  • Тематика: Верстка
  • Тип материала: Обучающее видео
  • Продолжительность: 03:35:00
  • Автор: Михаил Русаков
  • Язык: Русский-
  • Описание:
    Представляю Вашему вниманию свой новый Видеокурс «WordPress 4: Пример создания блога». Данный курс записан по последней, а именно 4-й версии этого мега-популярного движка. Поэтому актуальность курса высочайшая. Курс состоит из 3-х разделов: «Управление WordPress», «Создание блога» и «Размещение блога в Интернете».

    Описание:


    УПРАВЛЕНИЕ WORDPRESS
    «Введение»
    «Установка локального сервера»
    «Установка WordPress»
    «Панель управления»
    «Настройки»
    «Настройки ЧПУ»
    «Рубрики».
    «Добавление материалов»
    «Метки»
    «Создание страниц»
    «Медиафайлы»
    «Комментарии»
    «Меню»
    «Управление пользователями»
    «Изменение дизайна»
    «Плагины»
    «Виджеты»
    «О безопасности»
    СОЗДАНИЕ БЛОГА
    «Установка WordPress»
    «Настройка»
    «Подбор дизайна»
    «Меню»
    «Рубрики»
    «Добавление постов»
    «Комментирование»
    «Установка расширений»
    РАЗМЕЩЕНИЕ БЛОГА В ИНТЕРНЕТЕ
    «Описание процесса»
    «Покупка домена»
    «Покупка хостинга»
    «Перенос сайта»
    «Заключение»
    Бонусы:
    Бонус 1. Создание темы для WordPress
    Бонус 2. Создание плагина для WordPress
    Бонус 3. Создание виджета для WordPress
    --
  • Качество: PCRec
  • Формат: MP4, SWF
  • Видео кодек: AVC
  • Аудио кодек: AAC
  • Видео: avc1, 1280x720, 934 kbps, 15 fps
  • Аудио: AAC, 44.1 KHz, 2 ch stereo, 126 Kbps
--

MI

Код: copyText_writeLink('this.parentNode.parentNode.nextSibling.nextSibling');
Общее
Полное имя                               : D:\Мастер-Класс\WordPress 4 Пример создания блога (2014)\lessons\lesson_1_1\Lesson_1_1.mp4
Формат                                   : MPEG-4
Профиль формата                          : Base Media / Version 2
Идентификатор кодека                     : mp42
Размер файла                             : 15,3 Мбайт
Продолжительность                        : 2 м. 0 с.
Общий поток                              : 1062 Кбит/сек
Дата кодирования                         : UTC 2014-09-22 10:51:48
Дата пометки                             : UTC 2014-09-22 10:51:48
Видео
Идентификатор                            : 1
Формат                                   : AVC
Формат/Информация                        : Advanced Video Codec
Профиль формата                          : High@L3.1
Параметр CABAC формата                   : Да
Параметр ReFrames формата                : 4 кадра
Параметр GOP формата                     : M=1, N=75
Идентификатор кодека                     : avc1
Идентификатор кодека/Информация          : Advanced Video Coding
Продолжительность                        : 2 м. 0 с.
Продолжительность оригинала              : 2 м. 0 с.
Битрейт                                  : 885 Кбит/сек
Ширина                                   : 1280 пикселей
Высота                                   : 720 пикселей
Соотношение сторон                       : 16:9
Режим частоты кадров                     : Постоянный
Частота кадров                           : 15,000 кадров/сек
Цветовое пространство                    : YUV
Субдискретизация насыщенности            : 4:2:0
Битовая глубина                          : 8 бит
Тип развёртки                            : Прогрессивная
Бит/(Пиксели*Кадры)                      : 0.064
Размер потока                            : 12,8 Мбайт (83%)
Размер потока оригинала                  : 13,5 Мбайт (88%)
Язык                                     : English
Дата кодирования                         : UTC 2014-09-22 10:51:48
Дата пометки                             : UTC 2014-09-22 10:51:48
Цветовой диапазон                        : Limited
Основные цвета                           : BT.709
Характеристики трансфера                 : BT.709
Коэффициенты матрицы                     : BT.709
mdhd_Duration                            : 120798
Аудио
Идентификатор                            : 2
Формат                                   : AAC
Формат/Информация                        : Advanced Audio Codec
Профиль формата                          : LC
Идентификатор кодека                     : 40
Продолжительность                        : 2 м. 0 с.
Продолжительность оригинала              : 2 м. 0 с.
Вид битрейта                             : Постоянный
Битрейт                                  : 126 Кбит/сек
Каналы                                   : 2 канала
Расположение каналов                     : Front: L R
Частота                                  : 44,1 КГц
Метод сжатия                             : С потерями
Размер потока                            : 1,81 Мбайт (12%)
Размер потока оригинала                  : 1,81 Мбайт (12%)
Язык                                     : English
Дата кодирования                         : UTC 2014-09-22 10:51:48
Дата пометки                             : UTC 2014-09-22 10:51:48
mdhd_Duration                            : 120828

Скриншоты




Показать сообщения:    

Текущее время: 21-Сен 07:53

Часовой пояс: UTC - 1


Вы не можете начинать темы
Вы не можете отвечать на сообщения
Вы не можете редактировать свои сообщения
Вы не можете удалять свои сообщения
Вы не можете голосовать в опросах
Вы не можете прикреплять файлы к сообщениям
Вы не можете скачивать файлы

!ВНИМАНИЕ!
Сайт не предоставляет электронные версии произведений, а занимается лишь коллекционированием и каталогизацией ссылок, присылаемых и публикуемых на форуме нашими читателями. Если вы являетесь правообладателем какого-либо представленного материала и не желаете, чтобы ссылка на него находилась в нашем каталоге, свяжитесь с нами, и мы незамедлительно удалим ее. Файлы для обмена на трекере предоставлены пользователями сайта, и администрация не несет ответственности за их содержание. Просьба не заливать файлы, защищенные авторскими правами, а также файлы нелегального содержания!