Ивановский Торрент трекер
Яндекс.Погода
 

[Quote]
HUNTER

Вызов / La sfida / The challenge
Страна: Италия, Испания
Студия: Lux Film, CristalDiFilm
Жанр: драма
Год выпуска: 1958
Продолжительность: 01:26:51
Перевод: Любительский (многоголосый закадровый) - Колобок
Субтитры: русские (Антон Каптелов), английские, итальянские
Оригинальная аудиодорожка: итальянский
Режиссер: Франческо Рози / Francesco Rosi
В ролях: Розанна Скьяффино, Хосе Суарес, Нино Винджелли, Хосе Хаспе, Тина Кастильяно, Десимо Кристиани, Эльза Валентино Асколи, Паскуале Ченнамо, Нелло Асколи, Сальваторе Кафьеро, Гвидо Канте, Дженнаро Ди Наполи, Эльза Фиоре, Фердинандо Джерра, Убальдо Граната, Джози Ипполито, Марио Лаурентино, Гульельмо Сполетини, Паскуале Тартаро, Ренато Терра, Лия Томас, Эцио Вергари, Альфредо Виско, Кончетта Петито, Розита Писано
Роли озвучивали: den904, DeadSno, Berserk
Описание: Вито Полара, амбициозный молодой человек, пытается вместе с друзьями открыть свой бизнес по торговле сельхозпродукцией. Для воплощения в жизнь своих планов, ему приходится пойти на сделку с крестным отцом мафии, доном Сальваторе Айелло. Дела Вито сразу начинают идти в гору, он покупает машину, шикарную квартиру, собирается жениться на любимой девушке Ассунте. Но жажда власти и амбиции заставляют его пойти против своего покровителя и бросить вызов одной из самых страшных преступных организаций - неаполитанской каморре.
Доп. информация: В данный релиз - http://rutracker.org/forum/viewtopic.php?t=5194477 - добавлена русская аудиодорога. Запись чистого голоса произведена den904 в Sound Forge Pro 10.0. Наложение чистого голоса на оригинал и сборку DTS-MA осуществил Нордер. За субтитры спасибо dimmm2v.
Релиз состоялся благодаря: cementit, Sapienti Sat, ViktorMzz
Сэмпл: https://cloud.mail.ru/public/DcpE/BNUyZrB4W
Тип релиза: BDRemux 1080p
Контейнер: MKV
Видео: 23400 Кбит/сек, AVC (NTSC) 1920*1080 (16:9), 23,976 кадра/сек, CABAC
Аудио: Русский, DTS MA: 2.0 / 48,0 КГц / 1636 Кбит/сек / 16 бит / (DTS Core: 2.0 / 48,0 КГц / 1509 Кбит/сек / 16 бит)
Аудио 2: Итальянский, DTS MA: 2.0 / 48,0 КГц / 1569 Кбит/сек / 16 бит / (DTS Core: 2.0 / 48,0 КГц / 1509 Кбит/сек / 16 бит)
Формат субтитров: UTF

MediaInfo

Общее
Уникальный идентификатор : 198636061675283464044758779728590109208 (0x956FE9F6C361F5DC81C8A6FAD3917A18)
Полное имя : I:\MONAR\Художественные фильмы\Зарубежное кино\Вызов (1958) BDRemux 1080p.mkv
Формат : Matroska
Версия формата : Version 4 / Version 2
Размер файла : 16,1 Гбайт
Продолжительность : 1 ч. 26 м.
Режим общего битрейта : Переменный
Общий поток : 26,6 Мбит/сек
Название фильма : La sfida (1958)
Дата кодирования : UTC 2018-01-20 18:13:19
Программа кодирования : mkvmerge v20.0.0 ('I Am The Sun') 64-bit
Библиотека кодирования : libebml v1.3.5 + libmatroska v1.4.8
Видео
Идентификатор : 1
Формат : AVC
Формат/Информация : Advanced Video Codec
Профиль формата : [email protected]
Настройки формата : CABAC / 4 Ref Frames
Параметр CABAC формата : Да
Параметр RefFrames формата : 4 кадра
Параметр GOP формата : M=3, N=12
Идентификатор кодека : V_MPEG4/ISO/AVC
Продолжительность : 1 ч. 26 м.
Вид битрейта : Переменный
Битрейт : 23,4 Мбит/сек
Максимальный битрейт : 34,0 Мбит/сек
Ширина : 1920 пикселей
Высота : 1080 пикселей
Соотношение сторон : 16:9
Режим частоты кадров : Постоянный
Частота кадров : 23,976 (24000/1001) кадра/сек
Стандарт вещания : NTSC
Цветовое пространство : YUV
Субдискретизация насыщенности : 4:2:0
Битовая глубина : 8 бит
Тип развёртки : Прогрессивная
Бит/(Пиксели*Кадры) : 0.470
Размер потока : 14,2 Гбайт (88%)
Язык : Italian
Default : Да
Forced : Нет
Цветовой диапазон : Limited
Основные цвета : BT.709
Характеристики трансфера : BT.709
Коэффициенты матрицы : BT.709
Аудио #1
Идентификатор : 2
Формат : DTS
Формат/Информация : Digital Theater Systems
Профиль формата : MA / Core
Идентификатор кодека : A_DTS
Продолжительность : 1 ч. 26 м.
Вид битрейта : Переменный / Постоянный
Битрейт : 1636 Кбит/сек / 1509 Кбит/сек
Каналы : 2 канала
Расположение каналов : Front: L R
Частота : 48,0 КГц
Частота кадров : 93,750 кадра/сек (512 SPF)
Битовая глубина : 16 бит
Метод сжатия : Без потерь / Lossy
Размер потока : 1016 Мбайт (6%)
Заголовок : MVO
Язык : Russian
Default : Да
Forced : Нет
Аудио #2
Идентификатор : 3
Формат : DTS
Формат/Информация : Digital Theater Systems
Профиль формата : MA / Core
Идентификатор кодека : A_DTS
Продолжительность : 1 ч. 26 м.
Вид битрейта : Переменный / Постоянный
Битрейт : 1569 Кбит/сек / 1509 Кбит/сек
Каналы : 2 канала
Расположение каналов : Front: L R
Частота : 48,0 КГц
Частота кадров : 93,750 кадра/сек (512 SPF)
Битовая глубина : 16 бит
Метод сжатия : Без потерь / Lossy
Размер потока : 974 Мбайт (6%)
Заголовок : original
Язык : Italian
Default : Нет
Forced : Нет
Текст #1
Идентификатор : 4
Формат : UTF-8
Идентификатор кодека : S_TEXT/UTF8
Идентификатор кодека/Информация : UTF-8 Plain Text
Продолжительность : 1 ч. 26 м.
Битрейт : 132 бит/сек
ElementCount : 1209
Размер потока : 83,4 Кбайт (0%)
Заголовок : srt
Язык : Russian
Default : Нет
Forced : Нет
Текст #2
Идентификатор : 5
Формат : UTF-8
Идентификатор кодека : S_TEXT/UTF8
Идентификатор кодека/Информация : UTF-8 Plain Text
Продолжительность : 1 ч. 26 м.
Битрейт : 66 бит/сек
ElementCount : 1036
Размер потока : 42,2 Кбайт (0%)
Заголовок : srt
Язык : English
Default : Нет
Forced : Нет
Текст #3
Идентификатор : 6
Формат : UTF-8
Идентификатор кодека : S_TEXT/UTF8
Идентификатор кодека/Информация : UTF-8 Plain Text
Продолжительность : 1 ч. 23 м.
Битрейт : 79 бит/сек
ElementCount : 944
Размер потока : 49,1 Кбайт (0%)
Заголовок : srt
Язык : Italian
Default : Нет
Forced : Нет
Меню
00:00:00.000 : en:00:00:00.000
00:07:51.846 : en:00:07:51.846
00:13:44.031 : en:00:13:44.031
00:16:41.083 : en:00:16:41.083
00:23:13.225 : en:00:23:13.225
00:27:19.554 : en:00:27:19.554
00:31:31.764 : en:00:31:31.764
00:34:14.052 : en:00:34:14.052
00:41:03.502 : en:00:41:03.502
00:44:00.721 : en:00:44:00.721
00:48:50.302 : en:00:48:50.302
00:52:36.736 : en:00:52:36.736
00:57:55.972 : en:00:57:55.972
01:02:44.802 : en:01:02:44.802
01:07:09.025 : en:01:07:09.025
01:11:08.639 : en:01:11:08.639
01:17:50.624 : en:01:17:50.624
01:23:38.513 : en:01:23:38.513

Скриншоты



Display posts:    

Current time is: 07-Jul 06:17

All times are UTC ± 0


You cannot post new topics in this forum
You cannot reply to topics in this forum
You cannot edit your posts in this forum
You cannot delete your posts in this forum
You cannot vote in polls in this forum
You cannot attach files in this forum
You cannot download files in this forum

!ATTENTION!
The site does not give electronic versions of products, and is engaged only in a collecting and cataloguing of the references sent and published at a forum by our readers. If you are the legal owner of any submitted material and do not wish that the reference to it was in our catalogue, contact us and we shall immediately remove her. Files for an exchange on tracker are given by users of a site, and the administration does not bear the responsibility for their maintenance. The request to not fill in the files protected by copyrights, and also files of the illegal maintenance!