Ивановский Торрент трекер
Яндекс.Погода
DL-List and Torrent activity
None
 
     
 
style="text-align: center"
 

[Quote]
HUNTER

Высадка на Луну и нацисты / The Moon Landing and the Nazis
Дата/Год выпуска: 2018
Страна: Германия, Spiegel TV for WDR совместно с Arte, ZDF
Жанр: Документальный, космос, история
Продолжительность: 00:51:57
Перевод: Студийный (одноголосый закадровый)
Доп. инфо о переводе: студия SDI Media
Телеканал: Viasat History
Описание: Это было одним из величайших событий 20 века. 16 июля 1969 года, во Флориде, состоялся запуск ракеты мощностью более чем 150 миллионов л. с. США хотели победить в Холодной войне с Советским Союзом, превзойти в борьбе идеологий и доказать, именно Америка - страна безграничных возможностей.
Трое американских астронавтов отправились в опасное путешествие к Луне. Четыре дня спустя, более 1,5 миллиарда человек, наблюдали за тем, как первые люди ступали на поверхность спутника Земли.
Высадка на Луну, была также успехом многих ученых и инженеров из Германии. Долгие годы над этим проектом трудилось более 120 ракетостроителей под руководством Вернера фон Брауна. Все они стали героями, потому, что в Холодной войне между супердержавами, они внесли свой вклад в победы в космической гонке.
Этот впечатляющий триумф, временно затмил темное прошлое выходцев из Германии, многие из которых, в прошлом были нацистами, и были участниками разработки печально известной ракеты V2. Во время ее производства, в бесчеловечных условиях труда на нескольких нацистских подземных оружейных заводах на принудительных работах погибло около 20 000 рабочих и пленных.
В ходе секретной операции по обеспечению безопасности немецких ракетных технологий, американцы привезли ученых в США в 1945 году. Лишь несколько десятилетий спустя были опубликованы секретные документы, в которых подробно описывалось участие немецких сотрудников НАСА в лунной программе.
Доп. информация: Авторство релиза - alf62
Большое СПАСИБО boba88, за предоставленный постер!

качество: HDTVRip
формат: AVI
Видео: 720x400 (1.80:1), 25 fps, XviD build 73 ~1899 kbps avg, 0.26 bit/pixel
Аудио: 48 kHz, AC3 Dolby Digital, 2/0 (L,R) ch, ~192.00 kbps avgВысадка на Луну и нацисты / The Moon Landing and the Nazis на rutracker.cr

MediaInfo

Общее
Полное имя : D:\Запись\Аполлон Миссия, которая изменила мир\Высадка на Луне и нацисты\Высадка.на.Луну.и.нацисты.2018.XviD.HDTVRip.alf62.avi
Формат : AVI
Формат/Информация : Audio Video Interleave
Размер файла : 781 Мбайт
Продолжительность : 51 м.
Общий поток : 2102 Кбит/сек
Программа кодирования : VirtualDubMod 1.5.10.3 | www.virtualdub-fr.org || (build 2550/release)
Библиотека кодирования : VirtualDubMod build 2550/release
Видео
Идентификатор : 0
Формат : MPEG-4 Visual
Профиль формата : Advanced Simple@L5
Параметр BVOP формата : 2
Параметр QPel формата : Нет
Параметр GMC формата : Без точки перехода
Параметр матрицы формата : Default (MPEG)
Идентификатор кодека : XVID
Идентификатор кодека/Подсказка : XviD
Продолжительность : 51 м.
Битрейт : 1900 Кбит/сек
Ширина : 720 пикселей
Высота : 400 пикселей
Соотношение сторон : 16:9
Частота кадров : 25,000 кадров/сек
Цветовое пространство : YUV
Субдискретизация насыщенности : 4:2:0
Битовая глубина : 8 бит
Тип развёртки : Прогрессивная
Метод сжатия : С потерями
Бит/(Пиксели*Кадры) : 0.264
Размер потока : 706 Мбайт (90%)
Библиотека кодирования : XviD 73
Аудио
Идентификатор : 1
Формат : AC-3
Формат/Информация : Audio Coding 3
Расширение режима : CM (complete main)
Параметр Endianness формата : Big
Идентификатор кодека : 2000
Продолжительность : 51 м.
Вид битрейта : Постоянный
Битрейт : 192 Кбит/сек
Каналы : 2 канала
Расположение каналов : Front: L R
Частота : 48,0 КГц
Частота кадров : 31,250 кадров/сек (1536 spf)
Метод сжатия : С потерями
Размер потока : 71,4 Мбайт (9%)
Выравнивание : Разделение по промежуткам
Продолжительность промежутка : 40 мс. (1,00 видеокадр)
Время предзагрузки промежутка : 500 мс.


Display posts:    

Current time is: 22-Aug 11:24

All times are UTC ± 0


You cannot post new topics in this forum
You cannot reply to topics in this forum
You cannot edit your posts in this forum
You cannot delete your posts in this forum
You cannot vote in polls in this forum
You cannot attach files in this forum
You cannot download files in this forum

!ATTENTION!
The site does not give electronic versions of products, and is engaged only in a collecting and cataloguing of the references sent and published at a forum by our readers. If you are the legal owner of any submitted material and do not wish that the reference to it was in our catalogue, contact us and we shall immediately remove her. Files for an exchange on tracker are given by users of a site, and the administration does not bear the responsibility for their maintenance. The request to not fill in the files protected by copyrights, and also files of the illegal maintenance!