Ивановский Торрент трекер
Яндекс.Погода
DL-List and Torrent activity
None
 
     
 
style="text-align: center"
 

[Quote]
HUNTER

Секреты человеческого тела / The Human Body: Secrets of Your Life Revealed
Дата/Год выпуска: 2017
Страна: Великобритания
Жанр: Документальный, познавательный
Продолжительность: 3 х ~ 00:51:19
Перевод: Профессиональный (двухголосый закадровый)
Доп. инфо о переводе: Видеофильм ТВ
Режиссер: Мартин Джонсон / Martin Johnson, Пенни Палмер / Penny Palmer
Телеканал: Наука
Описание: Человеческое тело - самый сложный организм на земле. Это научное чудо, и многие из его тайн до сих пор не раскрыты. Этот документальный фильм использует последние достижения в графике, чтобы показать удивительно красивые биологические процессы, которые поддерживают в нас жизнь. В первом эпизоде мы исследуем такой процесс, как рост тела, поймем, почему продолжительность периода детства у человека больше, чем у любого другого существа на планете, а также выясним, что является триггером нашего преобразования из ребенка во взрослого.
IMDb
Сэмпл: https://www.sendspace.com/file/qw1vo0
качество: DVB
формат: TS/M2TS
Видео: 720x576 (16:9) AVC (H.264) Main@L3.0, ~ 2250 kbps, 25fps
Аудио: Русский 48 kHz, MPEG Layer 2, 2 ch, ~192.00 kbps avg

Список выпусков/серий

01. Рост / Grow
За всю свою жизнь вы подвергаетесь необычайным изменениям - ни одно другое животное на земле не переживает такой драматической метаморфозы. В этой программе Крис и Xand van Tulleken исследуют новейшее понимание того, как мы все растем.
02. Выживание / Survive
В этой программе доктора Крис и Ксанд ван Туллекен открывают для себя повседневные чудеса, которые поддерживают вас. Они исследуют необычайную длину наших тел, чтобы наши органы работали в каждый момент каждого дня.
03. Обучение / Learn
Эта программа исследует способ, которым наш опыт формирует наш разум и тело, когда мы путешествуем от самого беспомощного к самому сложному организму на земле. Доктор ван Туллекан раскрывает, как мы развиваем новые навыки.

MediaInfo

Complete name : F:\Наладки\Секреты человеческого тела\01. Рост.ts
Format : MPEG-TS
File size : 944 MiB
Duration : 51 min 19 s
Overall bit rate mode : Variable
Overall bit rate : 2 571 kb/s
Video
ID : 401 (0x191)
Menu ID : 2608 (0xA30)
Format : AVC
Format/Info : Advanced Video Codec
Format profile : Main@L3
Format settings : CABAC / 4 Ref Frames
Format settings, CABAC : Yes
Format settings, ReFrames : 4 frames
Codec ID : 27
Duration : 51 min 19 s
Bit rate : 2 250 kb/s
Width : 720 pixels
Height : 576 pixels
Display aspect ratio : 16:9
Frame rate : 25.000 FPS
Standard : Component
Color space : YUV
Chroma subsampling : 4:2:0
Bit depth : 8 bits
Scan type : Interlaced
Scan type, store method : Separated fields
Scan order : Top Field First
Bits/(Pixel*Frame) : 0.217
Stream size : 826 MiB (88%)
Color range : Limited
Color primaries : BT.601 PAL
Transfer characteristics : BT.470 System B, BT.470 System G
Matrix coefficients : BT.470 System B, BT.470 System G
Audio
ID : 402 (0x192)
Menu ID : 2608 (0xA30)
Format : MPEG Audio
Format version : Version 1
Format profile : Layer 2
Codec ID : 3
Duration : 51 min 19 s
Bit rate mode : Constant
Bit rate : 192 kb/s
Channel(s) : 2 channels
Sampling rate : 48.0 kHz
Frame rate : 41.667 FPS (1152 SPF)
Compression mode : Lossy
Delay relative to video : -120 ms
Stream size : 70.5 MiB (7%)
Language : Russian
Complete name : F:\Наладки\Секреты человеческого тела\02. Выживание.ts
Format : MPEG-TS
File size : 857 MiB
Duration : 51 min 35 s
Overall bit rate mode : Variable
Overall bit rate : 2 323 kb/s
Video
ID : 401 (0x191)
Menu ID : 2608 (0xA30)
Format : AVC
Format/Info : Advanced Video Codec
Format profile : Main@L3
Format settings : CABAC / 4 Ref Frames
Format settings, CABAC : Yes
Format settings, ReFrames : 4 frames
Codec ID : 27
Duration : 51 min 35 s
Bit rate : 2 014 kb/s
Width : 720 pixels
Height : 576 pixels
Display aspect ratio : 16:9
Frame rate : 25.000 FPS
Standard : Component
Color space : YUV
Chroma subsampling : 4:2:0
Bit depth : 8 bits
Scan type : Interlaced
Scan type, store method : Separated fields
Scan order : Top Field First
Bits/(Pixel*Frame) : 0.194
Stream size : 743 MiB (87%)
Color range : Limited
Color primaries : BT.601 PAL
Transfer characteristics : BT.470 System B, BT.470 System G
Matrix coefficients : BT.470 System B, BT.470 System G
Audio
ID : 402 (0x192)
Menu ID : 2608 (0xA30)
Format : MPEG Audio
Format version : Version 1
Format profile : Layer 2
Codec ID : 3
Duration : 51 min 35 s
Bit rate mode : Constant
Bit rate : 192 kb/s
Channel(s) : 2 channels
Sampling rate : 48.0 kHz
Frame rate : 41.667 FPS (1152 SPF)
Compression mode : Lossy
Delay relative to video : -80 ms
Stream size : 70.9 MiB (8%)
Language : Russian
Complete name : F:\Наладки\Секреты человеческого тела\03. Обучение.ts
Format : MPEG-TS
File size : 901 MiB
Duration : 51 min 48 s
Overall bit rate mode : Variable
Overall bit rate : 2 431 kb/s
Video
ID : 401 (0x191)
Menu ID : 2608 (0xA30)
Format : AVC
Format/Info : Advanced Video Codec
Format profile : Main@L3
Format settings : CABAC / 4 Ref Frames
Format settings, CABAC : Yes
Format settings, ReFrames : 4 frames
Codec ID : 27
Duration : 51 min 48 s
Bit rate : 2 116 kb/s
Width : 720 pixels
Height : 576 pixels
Display aspect ratio : 16:9
Frame rate : 25.000 FPS
Standard : Component
Color space : YUV
Chroma subsampling : 4:2:0
Bit depth : 8 bits
Scan type : Interlaced
Scan type, store method : Separated fields
Scan order : Top Field First
Bits/(Pixel*Frame) : 0.204
Stream size : 784 MiB (87%)
Color range : Limited
Color primaries : BT.601 PAL
Transfer characteristics : BT.470 System B, BT.470 System G
Matrix coefficients : BT.470 System B, BT.470 System G
Audio
ID : 402 (0x192)
Menu ID : 2608 (0xA30)
Format : MPEG Audio
Format version : Version 1
Format profile : Layer 2
Codec ID : 3
Duration : 51 min 48 s
Bit rate mode : Constant
Bit rate : 192 kb/s
Channel(s) : 2 channels
Sampling rate : 48.0 kHz
Frame rate : 41.667 FPS (1152 SPF)
Compression mode : Lossy
Delay relative to video : -40 ms
Stream size : 71.1 MiB (8%)
Language : Russian

Скриншоты 720x576

Скриншоты анаморф: 1047x576





Display posts:    

Current time is: 23-Aug 00:58

All times are UTC ± 0


You cannot post new topics in this forum
You cannot reply to topics in this forum
You cannot edit your posts in this forum
You cannot delete your posts in this forum
You cannot vote in polls in this forum
You cannot attach files in this forum
You cannot download files in this forum

!ATTENTION!
The site does not give electronic versions of products, and is engaged only in a collecting and cataloguing of the references sent and published at a forum by our readers. If you are the legal owner of any submitted material and do not wish that the reference to it was in our catalogue, contact us and we shall immediately remove her. Files for an exchange on tracker are given by users of a site, and the administration does not bear the responsibility for their maintenance. The request to not fill in the files protected by copyrights, and also files of the illegal maintenance!