Ивановский Торрент трекер
Яндекс.Погода
 

[Цитировать]
HUNTER

ВВС. Дети королевы Виктории (3 серии из 3) / Queen Victoria's Children
Дата/Год выпуска: 2013
Страна: Великобритания, BBC
Жанр: Документальный, история, биография
Продолжительность: 3 х ~ 00:59:00
Перевод: Профессиональный (дублированный)
Доп. инфо о переводе: «SDI Media»
Телеканал: Viasat History
Описание: У королевы Викторианской и принца Альберта, было девять детей, которые, несмотря на их совершенно разные характеры, оставались дружной семьей. Этот сериал рассказывает историю их жизни с точки зрения влияния на мир, их собственных личных достижений и их роли в воспитании детей.
Доп. информация: Авторство релиза - alf62


качество: HDTVRip
формат: AVI
Видео: 720x400 (1.80:1), 25 fps, XviD build 73 ~1908 kbps avg, 0.27 bit/pixel
Аудио: Русский, 48 kHz, AC3 Dolby Digital, 2/0 (L,R) ch, ~192.00 kbps avgДети королевы Виктории / Queen Victoria's Children на rutracker.cr

Список выпусков/серий

1. Прекрасно продуманные планы… / The Best Laid Plans...
Рассказ о бурных отношениях королевы Виктории с принцем Альбертом и их попытках воспитать детей и спасти монархию, показав миру современный образ королевской семьи.
2. Домашний тиран / A Domestic Tyrant
Мы поговорим об отношениях Виктории с дочерьми. Она держалась за них, давила на их и организовала их браки после смерти Альберта. Но принцессы пытались завоевать независимость.
3. Принцы останутся принцами / Princes Will Be Princes
Мы узнаем об отношениях Виктории с сыновьями. После смерти Альберта они пытались жить, следуя его идеалам чистоты, но это было непросто, после того, как к власти пришел развратный Берти

MediaInfo

Общее
Полное имя : D:\Запись\Дети королевы Виктории\ВВС.Дети.королевы.Виктории.2013.XviD.HDTVRip.alf62\2.Домашний.тиран.XviD.HDTVRip.alf62.avi
Формат : AVI
Формат/Информация : Audio Video Interleave
Размер файла : 890 Мбайт
Продолжительность : 58 м.
Общий поток : 2110 Кбит/сек
Программа кодирования : VirtualDubMod 1.5.10.3 | www.virtualdub-fr.org || (build 2550/release)
Библиотека кодирования : VirtualDubMod build 2550/release
Видео
Идентификатор : 0
Формат : MPEG-4 Visual
Профиль формата : Advanced Simple@L5
Параметр BVOP формата : 2
Параметр QPel формата : Нет
Параметр GMC формата : Без точки перехода
Параметр матрицы формата : Default (MPEG)
Идентификатор кодека : XVID
Идентификатор кодека/Подсказка : XviD
Продолжительность : 58 м.
Битрейт : 1908 Кбит/сек
Ширина : 720 пикселей
Высота : 400 пикселей
Соотношение сторон : 16:9
Частота кадров : 25,000 кадров/сек
Цветовое пространство : YUV
Субдискретизация насыщенности : 4:2:0
Битовая глубина : 8 бит
Тип развёртки : Прогрессивная
Метод сжатия : С потерями
Бит/(Пиксели*Кадры) : 0.265
Размер потока : 805 Мбайт (90%)
Библиотека кодирования : XviD 73
Аудио
Идентификатор : 1
Формат : AC-3
Формат/Информация : Audio Coding 3
Расширение режима : CM (complete main)
Параметр Endianness формата : Big
Идентификатор кодека : 2000
Продолжительность : 58 м.
Вид битрейта : Постоянный
Битрейт : 192 Кбит/сек
Каналы : 2 канала
Расположение каналов : Front: L R
Частота : 48,0 КГц
Частота кадров : 31,250 кадров/сек (1536 spf)
Метод сжатия : С потерями
Размер потока : 81,0 Мбайт (9%)
Выравнивание : Разделение по промежуткам
Продолжительность промежутка : 40 мс. (1,00 видеокадр)
Время предзагрузки промежутка : 500 мс.


Показать сообщения:    

Текущее время: 18-Фев 14:03

Часовой пояс: UTC ± 0


Вы не можете начинать темы
Вы не можете отвечать на сообщения
Вы не можете редактировать свои сообщения
Вы не можете удалять свои сообщения
Вы не можете голосовать в опросах
Вы не можете прикреплять файлы к сообщениям
Вы не можете скачивать файлы

!ВНИМАНИЕ!
Сайт не предоставляет электронные версии произведений, а занимается лишь коллекционированием и каталогизацией ссылок, присылаемых и публикуемых на форуме нашими читателями. Если вы являетесь правообладателем какого-либо представленного материала и не желаете, чтобы ссылка на него находилась в нашем каталоге, свяжитесь с нами, и мы незамедлительно удалим ее. Файлы для обмена на трекере предоставлены пользователями сайта, и администрация не несет ответственности за их содержание. Просьба не заливать файлы, защищенные авторскими правами, а также файлы нелегального содержания!