Ивановский Торрент трекер
Яндекс.Погода
 

[Quote]
HUNTER

Всё и сразу
Страна: Россия
Студия: Инвада фильм
Жанр: комедия, криминал
Год выпуска: 2013
Продолжительность: 01:31:03
Перевод: Не требуется
Субтитры: нет
Оригинальная аудиодорожка: русская
Режиссер: Роман Каримов
В ролях: Никита Ост, Антон Шурцов, Александр Паль, Юлия Хлынина, Артем Костюнёв, Андрей Муравьёв, Александр Шаляпин, Андрей Галактионов, Игорь Тарасевич, Ольга Возовая
Описание: Тима и Дэн — друзья-неудачники из провинциального городка. Учеба позади, работать не тянет, девушек нет. На пути к мечте (выбиться в люди) и в надежде получить всё и сразу (без особого напряга) парни берутся выполнить задание местного бандюка и отправляются на дело, прихватив с собой автослесаря Жору, такого же полного лузера.
На кону внушительная сумма, главное — не облажаться и чётко инсценировать ограбление своего же, подставного наркокурьера. Но вот засада: роль курьера случайно достаётся честному дембелю Ване, который оказывается не в курсе схем и обещаний. И теперь в водовороте погонь, потасовок и перестрелок всем четверым нужно по-настоящему напрячься, чтобы грамотно разрулить ситуацию. И получить ВСЁ и СРАЗУ.
Меню: есть, анимированное
Сэмпл
Тип релиза: DVD5
Контейнер: DVD-Video
Видео: PAL 16:9 (720x576(0.509)) MPEG Video, 25,000 кадр/сек, 5280 Кбит/сек
Аудио: Russian (Dolby AC-3, 6 ch) 448 Кбит/сек, 48.0 КГц

DVDInfo

Title: VIS
Disk size: 4.05 Gb ( 4 242 546,00 KBytes )
DVD Type: DVD-5
Enabled regions: 1,2,3,4,5,6,8
VTS_01:
Title Play Length: 00:00:19
Video: PAL 16:9 (720x576) VBR
Auto Pan&Scan, Auto Letterboxed
Audio (1):
Not specified (Dolby AC3, 2 ch)
Subtitles (0)
VTS_02:
Title Play Length: 01:31:02
Video: PAL 16:9 (720x576) VBR
Auto Pan&Scan, Auto Letterboxed
Audio (1):
Not specified (Dolby AC3, 6 ch)
Subtitles (0)
VTS_03:
Title Play Length: 00:01:59
Video: PAL 16:9 (720x576) VBR
Auto Pan&Scan, Auto Letterboxed
Audio (1):
Not specified (Dolby AC3, 2 ch)
Subtitles (0)
VTS_04:
Title Play Length: 00:01:44
Video: PAL 16:9 (720x576) VBR
Auto Pan&Scan, Auto Letterboxed
Audio (1):
Not specified (Dolby AC3, 2 ch)
Subtitles (0)
* Menus Information *
VIDEO_TS Menu
Video:
PAL 16:9 (720x576) VBR
Auto Pan&Scan, Auto Letterboxed
Audio (0)
Russian Language Unit :
Title Menu
VTS_01 Menu
Video:
PAL 16:9 (720x576) VBR
Auto Pan&Scan, Auto Letterboxed
Audio (1):
Not specified (Dolby AC3, 6 ch)
Russian Language Unit :
Root Menu
VTS_02 Menu
Video:
PAL 4:3 (720x576) VBR
Audio (0)
Russian Language Unit :
Root Menu
VTS_03 Menu
Video:
PAL 4:3 (720x576) VBR
Audio (0)
Russian Language Unit :
Root Menu
VTS_04 Menu
Video:
PAL 4:3 (720x576) VBR
Audio (0)
Russian Language Unit :
Root Menu

MediaInfo

Общее
Полное имя : VIS\VIDEO_TS\VTS_02_1.VOB
Формат : MPEG-PS
Размер файла : 1024 Мбайт
Продолжительность : 24 м. 29 с.
Режим общего битрейта : Переменный
Общий поток : 5844 Кбит/сек
Видео
Идентификатор : 224 (0xE0)
Формат : MPEG Video
Версия формата : Version 2
Профиль формата : [email protected]
Настройки формата : CustomMatrix / BVOP
Параметр BVOP формата : Да
Параметр матрицы формата : Выборочная
Параметр GOP формата : M=3, N=15
Структура изображения : Frame
Продолжительность : 24 м. 29 с.
Вид битрейта : Переменный
Битрейт : 5280 Кбит/сек
Максимальный битрейт : 9000 Кбит/сек
Ширина : 720 пикселей
Высота : 576 пикселей
Соотношение сторон : 16:9
Частота кадров : 25,000 кадров/сек
Стандарт вещания : PAL
Цветовое пространство : YUV
Субдискретизация насыщенности : 4:2:0
Битовая глубина : 8 бит
Тип развёртки : Чересстрочная
Порядок развёртки : Верхнее поле первое
Метод сжатия : С потерями
Бит/(Пиксели*Кадры) : 0.509
Временной код первого кадра : 00:00:00:00
Оригинал временного кода : Group of pictures header
GOP, открыто/закрыто : Закрыто
Размер потока : 925 Мбайт (90%)
Аудио
Идентификатор : 189 (0xBD)-128 (0x80)
Формат : AC-3
Формат/Информация : Audio Coding 3
Режим смешивания : DVD-Video
Продолжительность : 24 м. 29 с.
Вид битрейта : Постоянный
Битрейт : 448 Кбит/сек
Каналы : 6 каналов
Расположение каналов : Front: L C R, Side: L R, LFE
Частота : 48,0 КГц
Частота кадров : 31,250 кадров/сек (1536 SPF)
Битовая глубина : 16 бит
Метод сжатия : С потерями
Размер потока : 78,5 Мбайт (8%)
ServiceKind/String : Complete Main

Скриншоты меню

Скриншоты



Display posts:    

Current time is: 09-Jul 10:16

All times are UTC ± 0


You cannot post new topics in this forum
You cannot reply to topics in this forum
You cannot edit your posts in this forum
You cannot delete your posts in this forum
You cannot vote in polls in this forum
You cannot attach files in this forum
You cannot download files in this forum

!ATTENTION!
The site does not give electronic versions of products, and is engaged only in a collecting and cataloguing of the references sent and published at a forum by our readers. If you are the legal owner of any submitted material and do not wish that the reference to it was in our catalogue, contact us and we shall immediately remove her. Files for an exchange on tracker are given by users of a site, and the administration does not bear the responsibility for their maintenance. The request to not fill in the files protected by copyrights, and also files of the illegal maintenance!