Ивановский Торрент трекер
Яндекс.Погода
DL-List and Torrent activity
Size:  1.71 GB   |    Registered:  7 years 2 months   |    Completed:  26 times

Seeder not seen: 5 years 8 months

 
 
 
style="text-align: center"
 

[Quote]
ForZe

Время ведьм / Season of the Witch«Не все души можно спасти» Страна: США
Жанр: Фэнтези, Боевик, Приключения
Год выпуска: 2011
Продолжительность: 01:34:54
Перевод: Профессиональный (дублированный)
Cубтитры: Русские (полные, Гоблин, форсированные), Английские (2 вида)
Оригинальная аудиодорожка: английский
Режиссер: Доминик Сена / Dominic Sena
В ролях: Николас Кейдж /Nicolas Cage/, Рон Перлман /Ron Perlman/, Стивен Кэмпбелл Мур /Stephen Campbell Moore/, Стивен Грэм /Stephen Graham/, Ульрих Томсен /Ulrich Thomsen/, Клер Фой /Claire Foy/, Роберт Шиэн /Robert Sheehan/, Кристофер Ли /Christopher Lee/, Ребека Кеннеди /Rebekah Kennedy/, Эндрю Хефлер /Andrew Hefler/, Фернанда Дороги /Fernanda Dorogi/Описание: XIV столетие. В Европе свирепствует чума. Виновницей смертоносной беды признают беззащитную девушку, подозревая ее в колдовстве. Умирающий кардинал просит рыцаря Бэймена доставить ведьму в далекое аббатство, где ее чары должны быть разрушены.
Семеро верховых и повозка с железной клеткой, в которой заточена обвиняемая, отправляются в опасное путешествие. Скоро рыцари осознают, их миловидная спутница действительно не человек, а исчадие ада.
Исходник: BDRip 1080p
Размер: 1/3 DVD
Качество видео: HDRip
Формат видео: AVI
Видео: 720x400 (1.80:1), 23.976 fps, XviD MPEG-4 ~1734 kbps avg, 0.25 bit/pixel
Аудио: 48 kHz, AC3 Dolby Digital, 3/2 (L,C,R,l,r) + LFE ch, ~448.00 kbps avg - RUS
Аудио#2: 48 kHz, AC3 Dolby Digital, 3/2 (L,C,R,l,r) + LFE ch, ~384 kbps - ENG

MediaInfo

Общее
Полное имя : D:\Торренты\Season of the Witch_R.G.Torrents.Ru\Season of the Witch_R.G.Torrents.Ru_Drek.avi
Формат : AVI
Формат/Информация : Audio Video Interleave
Размер файла : 1,45 Гбайт
Продолжительность : 1 ч. 34 м.
Общий поток : 2192 Кбит/сек
Программа кодирования : VirtualDubModRus 1.5.10.2 (build 2542/release)
Библиотека кодирования : VirtualDubMod build 2542/release
Видео
Идентификатор : 0
Формат : MPEG-4 Visual
Профиль формата : Advanced Simple@L5
Параметр BVOP формата : 2
Параметр QPel формата : Нет
Параметр GMC формата : Без точки перехода
Параметр матрицы формата : Выборочная
Режим смешивания : Сжатый битовый поток
Идентификатор кодека : XVID
Идентификатор кодека/Подсказка : XviD
Продолжительность : 1 ч. 34 м.
Битрейт : 1735 Кбит/сек
Ширина : 720 пикселей
Высота : 400 пикселей
Соотношение сторон : 16:9
Частота кадров : 23,976 кадра/сек
Цветовое пространство : YUV
Субдискретизация насыщенности : 4:2:0
Битовая глубина : 8 бит
Тип развёртки : Прогрессивная
Метод сжатия : С потерями
Бит/(Пиксели*Кадры) : 0.251
Размер потока : 1,15 Гбайт (79%)
Библиотека кодирования : XviD 64
Аудио
Идентификатор : 1
Формат : AC-3
Формат/Информация : Audio Coding 3
Расширение режима : CM (complete main)
Идентификатор кодека : 2000
Продолжительность : 1 ч. 34 м.
Вид битрейта : Постоянный
Битрейт : 448 Кбит/сек
Каналы : 6 каналов
Расположение каналов : Front: L C R, Side: L R, LFE
Частота : 48,0 КГц
Битовая глубина : 16 бит
Метод сжатия : С потерями
Размер потока : 304 Мбайт (20%)
Выравнивание : Разделение по промежуткам
Продолжительность промежутка : 42 мс. (1,00 видеокадр)
Время предзагрузки промежутка : 500 мс.

Скриншот c названием фильма

Скриншоты

[iv-torrents.ru].t117.torrent
Torrent: Registered [ 2012-07-23 16:14 ] · CD3F85EA5B18CC592311FA81583394F8DC2B848F

Download .torrent

Download

36 KB

Status: checked
Completed: 26 times
Size: 1.71 GB
terms.php
Похожие темы


Quick Reply

Name:

               
       
     
Heads necessary to send messages to enable JavaScript
Display posts:    

Current time is: 16-Oct 08:09

All times are UTC ± 0


You can post new topics in this forum
You can reply to topics in this forum
You cannot edit your posts in this forum
You cannot delete your posts in this forum
You cannot vote in polls in this forum
You cannot attach files in this forum
You can download files in this forum

!ATTENTION!
The site does not give electronic versions of products, and is engaged only in a collecting and cataloguing of the references sent and published at a forum by our readers. If you are the legal owner of any submitted material and do not wish that the reference to it was in our catalogue, contact us and we shall immediately remove her. Files for an exchange on tracker are given by users of a site, and the administration does not bear the responsibility for their maintenance. The request to not fill in the files protected by copyrights, and also files of the illegal maintenance!