Ивановский Торрент трекер
Яндекс.Погода
DL-List and Torrent activity
Size:  4.61 GB   |    Registered:  4 years 2 months   |    Completed:  0 times
DL-List: None

Seeder not seen: Never

 
     
 
 
 

[Quote]
HUNTER

Время собирать
Страна: Россия
Студия: Кинокомпания Русское
Жанр: мелодрама
Год выпуска: 2014
Продолжительность: 01:32:29
Перевод: Не требуется
Cубтитры: нет
Оригинальная аудиодорожка: русский
Режиссёр: Владимир Устюгов
В ролях: Наталия Антонова, Алексей Макаров, Екатерина Волкова, Анастасия Акатова, Анастасия Стежко, Ульяна Урванцева, Марина Федункив, Анастасия Шалонько
Описание: Евгения работает учителем физкультуры в школе и одна воспитывает взрослую дочь Машу. Она души не чает в детях, трудится на износ, пытается растормошить вялых коллег и приобщить всех к здоровому образу жизни. Учителя посмеиваются над инициативной Женей, а школьники давно окрестили ее «чеканашкой». Усилий Жени не ценит и ее дочь. Старшеклассница Маша жаждет «красивой жизни» и осуждает мать-бессребреницу. Однажды в город приезжает миллионер, хозяин «газет, заводов, пароходов» Алексей. В юности у них с Женей был роман – та самая «первая любовь»..

Сэмпл: http://multi-up.com/1039529
Качество видео: HDTV 1080i
Формат видео: TS
Видео: AVC, 1920x1080, (16:9), 25 fps, 6.5 Mbps, 0.122 bit/pixel
Аудио: Русский, MP2, 48 kHz, 2 ch, 256 kbps

MediaInfo

General
ID : 1 (0x1)
Complete name : C:\Время собирать_2014_RU.ts
Format : MPEG-TS
File size : 4.61 GiB
Duration : 1h 32mn
Overall bit rate mode : Variable
Overall bit rate : 7 143 Kbps
Video
ID : 1000 (0x3E8)
Menu ID : 1 (0x1)
Format : AVC
Format/Info : Advanced Video Codec
Format profile : High@L4.0
Format settings, CABAC : Yes
Format settings, ReFrames : 4 frames
Format settings, GOP : M=4, N=32
Codec ID : 27
Duration : 1h 32mn
Bit rate : 6 531 Kbps
Width : 1 920 pixels
Height : 1 080 pixels
Display aspect ratio : 16:9
Frame rate : 25.000 fps
Color space : YUV
Chroma subsampling : 4:2:0
Bit depth : 8 bits
Scan type : MBAFF
Scan order : Top Field First
Bits/(Pixel*Frame) : 0.126
Stream size : 4.22 GiB (91%)
Audio
ID : 406 (0x196)
Menu ID : 1 (0x1)
Format : MPEG Audio
Format version : Version 1
Format profile : Layer 2
Codec ID : 3
Duration : 1h 32mn
Bit rate mode : Constant
Bit rate : 256 Kbps
Channel(s) : 2 channels
Sampling rate : 48.0 KHz
Compression mode : Lossy
Stream size : 169 MiB (4%)
Language : English

Скриншот c названием фильма

Скриншоты

[iv-torrents.ru].t42299.torrent
Torrent: Registered [ 2015-03-22 14:56 ] · 4C9B14D6F4528EE38E11F0607C2535DD281B2E5C

Download .torrent

Download

24 KB

Status: checked
Completed: 0 times
Size: 4.61 GB
terms.php
Похожие темы


Quick Reply

Name:

               
       
     
Heads necessary to send messages to enable JavaScript
Display posts:    

Current time is: 24-May 13:18

All times are UTC ± 0


You can post new topics in this forum
You can reply to topics in this forum
You cannot edit your posts in this forum
You cannot delete your posts in this forum
You cannot vote in polls in this forum
You cannot attach files in this forum
You can download files in this forum

!ATTENTION!
The site does not give electronic versions of products, and is engaged only in a collecting and cataloguing of the references sent and published at a forum by our readers. If you are the legal owner of any submitted material and do not wish that the reference to it was in our catalogue, contact us and we shall immediately remove her. Files for an exchange on tracker are given by users of a site, and the administration does not bear the responsibility for their maintenance. The request to not fill in the files protected by copyrights, and also files of the illegal maintenance!