Ивановский Торрент трекер
Яндекс.Погода
 

[Quote]
HUNTER

Вперёд / Onward- Год выпуска: 2020
Страна: США
Жанр: мультфильм, фэнтези, комедия, приключения, семейный
Продолжительность: 01:42:21
Перевод: Любительский (многоголосый закадровый) HDRezka Studio
Субтитры: нет-Режиссер:
Дэн Скэнлон / Dan Scanlon-В ролях:
Том Холланд, Крис Пратт, Джулия Луис-Дрейфус, Октавия Спенсер, Мэл Родригез, Кайл Борнхаймер, Лина Уэйте, Али Вонг, Грэй Гриффин, Трейси Ульман-Описание:
Братья-эльфы Иэн и Барли Лайтфуты живут в волшебном мире, населенном троллями, гоблинами, гномами, кентаврами и единорогами. Когда-то их мир переполняла магия, но те времена прошли, и теперь сказочные существа летают на самолетах, пользуются автомобилями, и ведут в целом прозаичную жизнь. Однако неожиданная находка приводит к тому, что братья решают отправиться в захватывающее путешествие на поиски настоящего волшебства из древних преданий.-| IMDB | КиноПоиск | Сэмпл | Рип - Dalemake-Качество: WEB-DLRip [AMZN]
Формат: AVI
Видео: 720x304 (2.37:1), 23.976 fps, XviD build 67 ~1643 kbps avg, 0.31 bit/pixel
Аудио: 48 kHz, AC3 Dolby Digital, 3/2 (L,C,R,l,r) + LFE ch, ~384 kbps avg-

Скриншоты

-

MediaInfo

Код:Общее
Полное имя : E:\Vpered_2020_WEB-DLRip_MVO_by_Dalemake.avi
Формат : AVI
Формат/Информация : Audio Video Interleave
Размер файла : 1,46 Гбайт
Продолжительность : 1 ч. 42 м.
Общий поток : 2037 Кбит/сек
Программа кодирования : VirtualDubMod 1.5.10.3 | www.virtualdub-fr.org || (build 2550/release)
Библиотека кодирования : VirtualDubMod build 2550/release
Видео
Идентификатор : 0
Формат : MPEG-4 Visual
Профиль формата : Advanced [email protected]
Настройки формата : BVOP1 / Custom Matrix
Параметр BVOP формата : 1
Параметр QPel формата : Нет
Параметр GMC формата : Без точки перехода
Параметр матрицы формата : Выборочная
Идентификатор кодека : XVID
Идентификатор кодека/Подсказка : XviD
Продолжительность : 1 ч. 42 м.
Битрейт : 1644 Кбит/сек
Ширина : 720 пикселей
Высота : 304 пикселя
Соотношение сторон : 2,35:1
Частота кадров : 23,976 (24000/1001) кадра/сек
Цветовое пространство : YUV
Субдискретизация насыщенности : 4:2:0
Битовая глубина : 8 бит
Тип развёртки : Прогрессивная
Метод сжатия : С потерями
Бит/(Пиксели*Кадры) : 0.313
Размер потока : 1,18 Гбайт (81%)
Библиотека кодирования : XviD 67
Аудио
Идентификатор : 1
Формат : AC-3
Формат/Информация : Audio Coding 3
Коммерческое название : Dolby Digital
Идентификатор кодека : 2000
Продолжительность : 1 ч. 42 м.
Вид битрейта : Постоянный
Битрейт : 384 Кбит/сек
Каналы : 6 каналов
ChannelLayout : L R C LFE Ls Rs
Частота : 48,0 КГц
Частота кадров : 31,250 кадров/сек (1536 SPF)
Битовая глубина : 16 бит
Метод сжатия : С потерями
Размер потока : 281 Мбайт (19%)
Выравнивание : Разделение по промежуткам
Продолжительность промежутка : 42 мс. (1,00 видеокадр)
Время предзагрузки промежутка : 500 мс.
ServiceKind/String : Complete Main
-


Display posts:    

Current time is: 08-Apr 14:36

All times are UTC ± 0


You cannot post new topics in this forum
You cannot reply to topics in this forum
You cannot edit your posts in this forum
You cannot delete your posts in this forum
You cannot vote in polls in this forum
You cannot attach files in this forum
You cannot download files in this forum

!ATTENTION!
The site does not give electronic versions of products, and is engaged only in a collecting and cataloguing of the references sent and published at a forum by our readers. If you are the legal owner of any submitted material and do not wish that the reference to it was in our catalogue, contact us and we shall immediately remove her. Files for an exchange on tracker are given by users of a site, and the administration does not bear the responsibility for their maintenance. The request to not fill in the files protected by copyrights, and also files of the illegal maintenance!