Ивановский Торрент трекер
Яндекс.Погода
 

[Quote]
HUNTER

Возвращение розовой пантеры / The Return of the Pink Panther
Страна: Великобритания
Студия: ITC Films, Jewel Productions, Pimlico Films
Жанр: комедия, криминал, детектив
Год выпуска: 1975
Продолжительность: 01:53:00
Перевод 1: Профессиональный (двухголосый закадровый) НТВ+
Перевод 2: Авторский (одноголосый закадровый) А. Михалев
Субтитры: английские
Оригинальная аудиодорожка: английский
Режиссер: Блейк Эдвардс / Blake Edwards
В ролях: Питер Селлерс, Кристофер Пламмер, Кэтрин Шелл, Херберт Лом, Питер Арне, Питер Джефри, Грегуар Аслан, Дэвид Лодж, Грэм Старк, Эрик Польман, Андре Маранн, Берт Квук, Виктор Спинетти, Джон Блузал, Майк Грэйди, Питер Джонс, Херб Тэнни, Молли Морин, Надим Савалха, Андре Черисс, Майкл Найтингейл, Памела Эбботт, Френсис Мортимер, Яшав Адем, Милтон Рейд, Хьюго Де Вернье, Клер Девенпорт, Кэрол Кливлэнд, Тони Адамс, Питер Самуэльсон.
Описание: Неуклюжесть инспектор Клузо привела к тому, что его понизили в должности. Но французское правительство заставляет Дрейфуса вернуть Клузо на его место, чтобы он мог помочь выдуманной ближневосточной нации лугашей расследовать кражу бриллианта «Розовая пантера», который вновь пропал.
Исследовав музей и чуть не разрушив его, Клузо приходит к выводу, что Чарльз Литтон, также известный как Фантом, решил повторить самое позорное преступление в своей карьере…
-
Сэмпл IMDB Кинопоиск
-
Мои раздачи Розовой пантеры:
A Shot in the Dark 1964 BDRemux 1080p
A Shot in the Dark 1964 BDRip 720p
The Return of the Pink Panther 1975 BDRip 720p
The Pink Panther Strikes Again 1976 BDRemux 1080p
The Pink Panther Strikes Again 1976 BDRip 720p
Revenge of the Pink Panther 1978 BDRemux 1080p
Revenge of the Pink Panther 1978 BDRip 720p
Trail of the Pink Panther 1982 BDRemux 1080p
Trail of the Pink Panther 1982 BDRip 720p
-
Тип релиза: BDRemux 1080p (The.Return.of.the.Pink.Panther.1975.BluRay.1080p.AVC.DTS-HD.MA.2.0.REMUX-FraMeSToR)
Контейнер: MKV
Видео: AVC / 1920x1080 / 16:9 / 23.976 fps / 23984 Kbps / [email protected]
Аудио 1 Rus: AC3 / 48.0 KHz / 2.0 / 192 kbps / DVO / НТВ+
Аудио 2 Rus: AC3 / 48.0 KHz / 2.0 / 192 kbps / АVO / А. Михалев
Аудио 3 Eng: DTS-HD MA / 48.0 KHz / 2.0 / 1591 kbps / 16 bit (DTS Core 48.0 KHz / 2.0 / 1509 kbps / 16 bit)
Формат субтитров: softsub (SRT)

MediaInfo

Общее
Уникальный идентификатор : 146173470851159272297907374321514586820 (0x6DF7FC888F200FFECA97D7CEC43422C4)
Полное имя : E:\porvaliparus.2018\The.Return.of.the.Pink.Panther.1975.BDRemux.1080p.mkv
Формат : Matroska
Версия формата : Version 4 / Version 2
Размер файла : 20,5 Гбайт
Продолжительность : 1 ч. 53 м.
Режим общего битрейта : Переменный
Общий поток : 25,9 Мбит/сек
Название фильма : The.Return.of.the.Pink.Panther.1975.BDRemux.1080p-porvaliparus
Дата кодирования : UTC 2018-01-21 02:32:59
Программа кодирования : mkvmerge v20.0.0 ('I Am The Sun') 64-bit
Библиотека кодирования : libebml v1.3.5 + libmatroska v1.4.8
Видео
Идентификатор : 1
Формат : AVC
Формат/Информация : Advanced Video Codec
Профиль формата : [email protected]
Настройки формата : CABAC / 4 Ref Frames
Параметр CABAC формата : Да
Параметр RefFrames формата : 4 кадра
Идентификатор кодека : V_MPEG4/ISO/AVC
Продолжительность : 1 ч. 52 м.
Вид битрейта : Переменный
Битрейт : 24,0 Мбит/сек
Максимальный битрейт : 37,0 Мбит/сек
Ширина : 1920 пикселей
Высота : 1080 пикселей
Соотношение сторон : 16:9
Режим частоты кадров : Постоянный
Частота кадров : 23,976 (24000/1001) кадра/сек
Стандарт вещания : NTSC
Цветовое пространство : YUV
Субдискретизация насыщенности : 4:2:0
Битовая глубина : 8 бит
Тип развёртки : Прогрессивная
Бит/(Пиксели*Кадры) : 0.482
Размер потока : 18,9 Гбайт (92%)
Заголовок : The.Return.of.the.Pink.Panther.1975.BDRemux.1080p
Default : Да
Forced : Нет
Цветовой диапазон : Limited
Основные цвета : BT.709
Характеристики трансфера : BT.709
Коэффициенты матрицы : BT.709
Аудио #1
Идентификатор : 2
Формат : AC-3
Формат/Информация : Audio Coding 3
Идентификатор кодека : A_AC3
Продолжительность : 1 ч. 53 м.
Вид битрейта : Постоянный
Битрейт : 192 Кбит/сек
Каналы : 2 канала
Расположение каналов : Front: L R
Частота : 48,0 КГц
Частота кадров : 31,250 кадров/сек (1536 SPF)
Битовая глубина : 16 бит
Метод сжатия : С потерями
Размер потока : 155 Мбайт (1%)
Заголовок : DVO [НТВ+]
Язык : Russian
ServiceKind/String : Complete Main
Default : Да
Forced : Нет
Аудио #2
Идентификатор : 3
Формат : AC-3
Формат/Информация : Audio Coding 3
Идентификатор кодека : A_AC3
Продолжительность : 1 ч. 53 м.
Вид битрейта : Постоянный
Битрейт : 192 Кбит/сек
Каналы : 2 канала
Расположение каналов : Front: L R
Частота : 48,0 КГц
Частота кадров : 31,250 кадров/сек (1536 SPF)
Битовая глубина : 16 бит
Метод сжатия : С потерями
Размер потока : 155 Мбайт (1%)
Заголовок : AVO [А. Михалев]
Язык : Russian
ServiceKind/String : Complete Main
Default : Нет
Forced : Нет
Аудио #3
Идентификатор : 4
Формат : DTS
Формат/Информация : Digital Theater Systems
Профиль формата : MA / Core
Идентификатор кодека : A_DTS
Продолжительность : 1 ч. 53 м.
Вид битрейта : Переменный / Постоянный
Битрейт : 1591 Кбит/сек / 1509 Кбит/сек
Каналы : 2 канала
Расположение каналов : Front: L R
Частота : 48,0 КГц
Частота кадров : 93,750 кадра/сек (512 SPF)
Битовая глубина : 16 бит
Метод сжатия : Без потерь / Lossy
Размер потока : 1,26 Гбайт (6%)
Язык : English
Default : Нет
Forced : Нет
Текст
Идентификатор : 5
Формат : UTF-8
Идентификатор кодека : S_TEXT/UTF8
Идентификатор кодека/Информация : UTF-8 Plain Text
Продолжительность : 1 ч. 51 м.
Битрейт : 43 бит/сек
ElementCount : 1018
Размер потока : 35,5 Кбайт (0%)
Язык : English
Default : Нет
Forced : Нет
Меню
00:00:00.000 : en:Chapter 01
00:15:47.863 : en:Chapter 02
00:22:48.325 : en:Chapter 03
00:31:02.777 : en:Chapter 04
00:40:07.446 : en:Chapter 05
00:51:52.651 : en:Chapter 06
00:58:10.195 : en:Chapter 07
01:08:46.997 : en:Chapter 08
01:23:29.879 : en:Chapter 09
01:35:01.487 : en:Chapter 10
01:40:18.846 : en:Chapter 11
01:51:14.459 : en:Chapter 12

Скриншоты




Display posts:    

Current time is: 07-Jul 05:27

All times are UTC ± 0


You cannot post new topics in this forum
You cannot reply to topics in this forum
You cannot edit your posts in this forum
You cannot delete your posts in this forum
You cannot vote in polls in this forum
You cannot attach files in this forum
You cannot download files in this forum

!ATTENTION!
The site does not give electronic versions of products, and is engaged only in a collecting and cataloguing of the references sent and published at a forum by our readers. If you are the legal owner of any submitted material and do not wish that the reference to it was in our catalogue, contact us and we shall immediately remove her. Files for an exchange on tracker are given by users of a site, and the administration does not bear the responsibility for their maintenance. The request to not fill in the files protected by copyrights, and also files of the illegal maintenance!