Ивановский Торрент трекер
Яндекс.Погода
 

[Quote]
HUNTER

Война
Страна: Россия
Студия: Кинокомпания CTB
Жанр: Боевик, драма
Год выпуска: 2002
Продолжительность: 01:59:55
Перевод: Не требуется
Субтитры: Русские (внешние)
Оригинальная аудио дорожка: Русский
Режиссёр: Алексей Балабанов
В ролях: Алексей Чадов, Иэн Келли, Ингеборга Дапкунайте, Сергей Бодров мл., Эвклид Кюрдзидис, Георгий Гургулия, Владимир Гостюхин, Бен Фостер, Юрий Степанов, Дэвид МакАллистер, Андрей Кормунин, Стив Джемисон, Лев Эренбург, Питер Викхэм, Станислав Стоцкий, Татьяна Пестова, Алексей Алексеев (II), Виктория Смирнова, Ольга Пастухова, Алексей Усольцев, Ирина Соколова (II), Алексей Болкисов, Елена Андреева, Андрей Гульнев, Виктор Смирнов (I), Ирина Малиновская, Сергей Шемаркин, Татьяна Леднёва, Геннадий Баширов, Дуня Замахина, Тимур Ибрагимов, Кюри Пучаев, Казбек Багаев, Заза Багаев, Лаврентий Бедоев, Сослан Сланов, Владимир Доев, Антон Тогоев, Аслан Мечукаев, Тобин Обер, Руслан Барсуков, Керим Ногеров, Алан Царикаев
Описание: Аслан Гугаев, командир отряда чеченских боевиков, отпускает двоих пленников. Русского солдата Ваню Ермакова — потому что он не контрактник, а призывник. И англичанина Джона Бойла — потому что он должен собрать два миллиона фунтов стерлингов и привезти деньги Гугаеву в качестве выкупа за свою невесту Маргарет. Маргарет остается у Аслана. Так же, как и капитан российской армии Медведев… За отведенные ему два месяца Джон не находит нужную сумму и не находит поддержки у британских властей, зато, вернувшись в Россию, находит Ваню Ермакова, живущего в Тобольске. Джон и Ваня опять едут в Чечню. Чтобы освободить английскую девушку Маргарет и русского капитана Медведева…
Доп. информация:
Автор релиза -
Источник аудио и видео - HDTV 1080i TS - моя запись с канала Наш Детектив HD
С DVD9 взяты русские субтитры и нецензурная оригинальная аудиодорожка AC3 5.1 384 kbps и синхронизированы под HDTV



Сэмпл: https://yadi.sk/i/HXKrmpCx3X5P9e
Рекламы нет!
Качество видео: HDTV 1080i
Формат видео: TS
Видео: MPEG-4, 1920x1080 (16:9), 25.000 fps, 8883 kbps, 0.171 bit/pixel
Аудио 1: Русский MP2, 48000 Гц, 2ch, 192 kbps
Аудио 2: Русский AC3, 48000 Гц, 6ch, 448 kbps
Аудио 3: Русский AC3, 48000 Гц, 6ch, 384 kbps - нецензурная оригинальная с DVD9 (внешняя)
Субтитры: softsub (SRT) - внешние

MediaInfo

Общее
Идентификатор : 1 (0x1)
Полное имя : F:\Война.2002.HDTV.1080i-ylnian_new\Война.2002.HDTV.1080i-ylnian_new.ts
Формат : MPEG-TS
Размер файла : 8,40 Гбайт
Продолжительность : 1 ч. 59 м.
Режим общего битрейта : Переменный
Общий поток : 10,0 Мбит/сек
Видео
Идентификатор : 3531 (0xDCB)
Идентификатор меню : 17013 (0x4275)
Формат : AVC
Формат/Информация : Advanced Video Codec
Профиль формата : [email protected]
Настройки формата : CABAC / 3 Ref Frames
Параметр CABAC формата : Да
Параметр RefFrames формата : 3 кадра
Идентификатор кодека : 27
Продолжительность : 1 ч. 59 м.
Битрейт : 8883 Кбит/сек
Ширина : 1920 пикселей
Высота : 1080 пикселей
Соотношение сторон : 16:9
Частота кадров : 25,000 кадров/сек
Стандарт вещания : Component
Цветовое пространство : YUV
Субдискретизация насыщенности : 4:2:0
Битовая глубина : 8 бит
Тип развёртки : Чересстрочная
Метод сохранения типа развёртки : Раздельные поля
Порядок развёртки : Верхнее поле первое
Бит/(Пиксели*Кадры) : 0.171
Размер потока : 7,44 Гбайт (89%)
Цветовой диапазон : Limited
Основные цвета : BT.709
Характеристики трансфера : BT.709
Коэффициенты матрицы : BT.709
Аудио #1
Идентификатор : 3532 (0xDCC)
Идентификатор меню : 17013 (0x4275)
Формат : MPEG Audio
Версия формата : Version 1
Профиль формата : Layer 2
Идентификатор кодека : 3
Продолжительность : 1 ч. 59 м.
Вид битрейта : Постоянный
Битрейт : 192 Кбит/сек
Каналы : 2 канала
Частота : 48,0 КГц
Частота кадров : 41,667 кадра/сек (1152 SPF)
Метод сжатия : С потерями
Размер потока : 165 Мбайт (2%)
Язык : Russian
Аудио #2
Идентификатор : 3533 (0xDCD)
Идентификатор меню : 17013 (0x4275)
Формат : AC-3
Формат/Информация : Audio Coding 3
Идентификатор кодека : 6
Продолжительность : 1 ч. 59 м.
Вид битрейта : Постоянный
Битрейт : 448 Кбит/сек
Каналы : 6 каналов
Расположение каналов : Front: L C R, Side: L R, LFE
Частота : 48,0 КГц
Частота кадров : 31,250 кадров/сек (1536 SPF)
Битовая глубина : 16 бит
Метод сжатия : С потерями
Размер потока : 384 Мбайт (4%)
Язык : Russian
ServiceKind/String : Complete Main
Общее
Полное имя : F:\Война.2002.HDTV.1080i-ylnian_new\Война.2002.HDTV.1080i-ylnian_new_rus.srt
Формат : SubRip
Размер файла : 101 Кбайт
Текст
Формат : SubRip
Метод сжатия : Без потерь
Общее
Полное имя : F:\Война.2002.HDTV.1080i-ylnian_new\Война.2002.HDTV.1080i-ylnian_new_rus384DVD.ac3
Формат : AC-3
Формат/Информация : Audio Coding 3
Размер файла : 329 Мбайт
Продолжительность : 1 ч. 59 м.
Режим общего битрейта : Постоянный
Общий поток : 384 Кбит/сек
Аудио
Формат : AC-3
Формат/Информация : Audio Coding 3
Продолжительность : 1 ч. 59 м.
Вид битрейта : Постоянный
Битрейт : 384 Кбит/сек
Каналы : 6 каналов
Расположение каналов : Front: L C R, Side: L R, LFE
Частота : 48,0 КГц
Частота кадров : 31,250 кадров/сек (1536 SPF)
Битовая глубина : 16 бит
Метод сжатия : С потерями
Размер потока : 329 Мбайт (100%)
ServiceKind/String : Complete Main

Сравнение

Сравнение скриншотов с DVD9 - http://screenshotcomparison.com/comparison/129629 - в моём релизе выше чёткость и резкость
DVD9 --->>> HDTV
--->>>
--->>>
--->>>
--->>>
Сравнение скриншотов с WEBRip-AVC 1080p - http://screenshotcomparison.com/comparison/129636/picture:2 - в моём релизе лучше качество картинки
WEBRip-AVC 1080p --->>> HDTV
--->>>
--->>>
--->>>
--->>>
Обновил 04-06-2018:
- замена видеоряда на более качественный
- добавлена оригинальная нецензурная дорожка с DVD - внешний файл
- добавлены оригинальные субтитры с DVD - внешний файл


Display posts:    

Current time is: 04-Jul 18:41

All times are UTC ± 0


You cannot post new topics in this forum
You cannot reply to topics in this forum
You cannot edit your posts in this forum
You cannot delete your posts in this forum
You cannot vote in polls in this forum
You cannot attach files in this forum
You cannot download files in this forum

!ATTENTION!
The site does not give electronic versions of products, and is engaged only in a collecting and cataloguing of the references sent and published at a forum by our readers. If you are the legal owner of any submitted material and do not wish that the reference to it was in our catalogue, contact us and we shall immediately remove her. Files for an exchange on tracker are given by users of a site, and the administration does not bear the responsibility for their maintenance. The request to not fill in the files protected by copyrights, and also files of the illegal maintenance!