Ивановский Торрент трекер
Яндекс.Погода
 

[Quote]
HUNTER

Вкус ночи / Wir sind die Nacht
Страна: Германия
Студия: Constantin Film Produktion GmbH
Жанр: ужасы, фэнтези, драма, мелодрама
Год выпуска: 2010
Продолжительность: 01:35:41
Перевод: Профессиональный (дублированный)
Субтитры: русские
Оригинальная аудиодорожка: немецкая
Режиссер: Деннис Ганзель / Dennis Gansel
В ролях: Каролина Херфурт, Нина Хосс, Дженнифер Ульрих, Анна Фишер, Макс Римельт, Арвед Бирнбаум, Штеффи Кюнерт, Йохен Никель, Иван Шведов, Николас Ромм
Описание: Лина — трудный подросток, она не находит общего языка с родителями и сверстниками, промышляет мелким воровством. Однажды, пробравшись на закрытую вечеринку, она знакомится с богатой и эффектной Луизой — вампиром, главенствующим в трио себе подобных существ, куда также входят бесшабашная Нора и томная Шарлотта. Луиза решает приобщить закомплексованную и зажатую девушку к своей банде. Теперь Лине суждено познать блеск и проклятие вечной жизни «неупокоенных». Перед ней открываются все двери в мир гламура и беспредельной свободы. И с каждой ночью ее новые подруги становятся все ненасытнее, а число жертв вурдалаков безудержно растет. Но когда за расследование их преступлений берется давний знакомый Лины — молодой полицейский Том Сернер, приходит пора платить по счетам…
Дополнительные материалы: Интервью, На съемочной площадке
Меню: есть, анимированное
Сэмпл
Тип релиза: DVD9
Контейнер: DVD-Video
Видео: PAL 16:9 (720x576(0.630)) MPEG Video, 25,000 кадр/сек, 6528 Кбит/сек
Аудио: Russian (Dolby AC-3, 6 ch) 256 Кбит/сек, 48.0 КГц
Аудио 2: Russian (DTS, 6 ch) 768 Кбит/сек, 48.0 КГц
Аудио 3: German (Dolby AC-3, 6 ch) 256 Кбит/сек, 48.0 КГц
Аудио 4: Russian (Dolby AC-3, 2 ch) 128 Кбит/сек, 48.0 КГц, Доп. материалы

DVDInfo

Title: WIR_SIND_DIE_NACHT
Disk size: 6.61 Gb ( 6 931 812,00 KBytes )
DVD Type: DVD-9
Enabled regions: 1,2,3,4,5,6,7,8
VTS_01:
Title Play Length: 00:00:10
Video: PAL 16:9 (720x576) VBR
Auto Pan&Scan, Auto Letterboxed
Audio (0)
Subtitles (0)
VTS_02:
Title Play Length: 00:00:06
Video: PAL 16:9 (720x576) VBR
Auto Pan&Scan, Auto Letterboxed
Audio (0)
Subtitles (0)
VTS_03:
Title Play Length: 01:35:40
Video: PAL 16:9 (720x576) VBR
Auto Pan&Scan, Auto Letterboxed
Audio (3):
Russian (Dolby AC3, 6 ch)
Russian (DTS, 6 ch)
Deutsch (Dolby AC3, 6 ch)
Subtitles (3):
Not specified
Not specified
Not specified
VTS_04:
Title Play Length: 00:17:59
Video: PAL 16:9 (720x576) VBR
Auto Pan&Scan, Auto Letterboxed
Audio (1):
Not specified (Dolby AC3, 2 ch)
Subtitles (0)
VTS_05:
Title Play Length: 00:06:59
Video: PAL 16:9 (720x576) VBR
Auto Pan&Scan, Auto Letterboxed
Audio (1):
Not specified (Dolby AC3, 2 ch)
Subtitles (0)
* Menus Information *
VIDEO_TS Menu
Video:
PAL 16:9 (720x576) VBR
Auto Pan&Scan, Auto Letterboxed
Audio (0)
Russian Language Unit :
Title Menu
VTS_01 Menu
Video:
PAL 16:9 (720x576) VBR
Auto Pan&Scan, Auto Letterboxed
Audio (1):
Not specified (Dolby AC3, 5 ch)
Russian Language Unit :
Root Menu
VTS_02 Menu
Video:
PAL 4:3 (720x576) VBR
Audio (0)
Russian Language Unit :
Root Menu
VTS_03 Menu
Video:
PAL 4:3 (720x576) VBR
Audio (0)
Russian Language Unit :
Root Menu
VTS_04 Menu
Video:
PAL 4:3 (720x576) VBR
Audio (0)
Russian Language Unit :
Root Menu
VTS_05 Menu
Video:
PAL 4:3 (720x576) VBR
Audio (0)
Russian Language Unit :
Root Menu

MediaInfo

Общее
Полное имя : WIR_SIND_DIE_NACHT\VIDEO_TS\VTS_03_1.VOB
Формат : MPEG-PS
Размер файла : 1024 Мбайт
Продолжительность : 18 м. 0 с.
Режим общего битрейта : Переменный
Общий поток : 7952 Кбит/сек
Видео
Идентификатор : 224 (0xE0)
Формат : MPEG Video
Версия формата : Version 2
Профиль формата : [email protected]
Настройки формата : CustomMatrix / BVOP
Параметр BVOP формата : Да
Параметр матрицы формата : Выборочная
Параметр GOP формата : M=3, N=12
Структура изображения : Frame
Продолжительность : 18 м. 0 с.
Вид битрейта : Переменный
Битрейт : 6528 Кбит/сек
Максимальный битрейт : 8300 Кбит/сек
Ширина : 720 пикселей
Высота : 576 пикселей
Соотношение сторон : 16:9
Частота кадров : 25,000 кадров/сек
Стандарт вещания : PAL
Цветовое пространство : YUV
Субдискретизация насыщенности : 4:2:0
Битовая глубина : 8 бит
Тип развёртки : Чересстрочная
Порядок развёртки : Верхнее поле первое
Метод сжатия : С потерями
Бит/(Пиксели*Кадры) : 0.630
Временной код первого кадра : 01:00:50:00
Оригинал временного кода : Group of pictures header
GOP, открыто/закрыто : Закрыто
Размер потока : 841 Мбайт (82%)
Основные цвета : BT.601 PAL
Характеристики трансфера : BT.470 System B, BT.470 System G
Коэффициенты матрицы : BT.601
Аудио #1
Идентификатор : 189 (0xBD)-128 (0x80)
Формат : AC-3
Формат/Информация : Audio Coding 3
Режим смешивания : DVD-Video
Продолжительность : 17 м. 59 с.
Вид битрейта : Постоянный
Битрейт : 256 Кбит/сек
Каналы : 6 каналов
Расположение каналов : Front: L C R, Side: L R, LFE
Частота : 48,0 КГц
Частота кадров : 31,250 кадров/сек (1536 SPF)
Битовая глубина : 16 бит
Метод сжатия : С потерями
Размер потока : 33,0 Мбайт (3%)
ServiceKind/String : Complete Main
Аудио #2
Идентификатор : 189 (0xBD)-130 (0x82)
Формат : AC-3
Формат/Информация : Audio Coding 3
Режим смешивания : DVD-Video
Продолжительность : 17 м. 59 с.
Вид битрейта : Постоянный
Битрейт : 256 Кбит/сек
Каналы : 6 каналов
Расположение каналов : Front: L C R, Side: L R, LFE
Частота : 48,0 КГц
Частота кадров : 31,250 кадров/сек (1536 SPF)
Битовая глубина : 16 бит
Метод сжатия : С потерями
Размер потока : 33,0 Мбайт (3%)
ServiceKind/String : Complete Main
Аудио #3
Идентификатор : 189 (0xBD)-137 (0x89)
Формат : DTS
Формат/Информация : Digital Theater Systems
Режим смешивания : DVD-Video
Продолжительность : 17 м. 59 с.
Вид битрейта : Постоянный
Битрейт : 755 Кбит/сек
Каналы : 6 каналов
Расположение каналов : Front: L C R, Side: L R, LFE
Частота : 48,0 КГц
Частота кадров : 93,750 кадра/сек (512 SPF)
Битовая глубина : 16 бит
Метод сжатия : С потерями
Размер потока : 97,1 Мбайт (9%)
Текст
Идентификатор : 189 (0xBD)-34 (0x22)
Формат : RLE
Формат/Информация : Run-length encoding
Режим смешивания : DVD-Video

Скриншоты меню

Скриншоты

Скриншоты доп. материалов



Display posts:    

Current time is: 07-Jul 06:05

All times are UTC ± 0


You cannot post new topics in this forum
You cannot reply to topics in this forum
You cannot edit your posts in this forum
You cannot delete your posts in this forum
You cannot vote in polls in this forum
You cannot attach files in this forum
You cannot download files in this forum

!ATTENTION!
The site does not give electronic versions of products, and is engaged only in a collecting and cataloguing of the references sent and published at a forum by our readers. If you are the legal owner of any submitted material and do not wish that the reference to it was in our catalogue, contact us and we shall immediately remove her. Files for an exchange on tracker are given by users of a site, and the administration does not bear the responsibility for their maintenance. The request to not fill in the files protected by copyrights, and also files of the illegal maintenance!