Ивановский Торрент трекер
Яндекс.Погода
 

[Цитировать]
димитри37

Веселозавр Рекс / Partysaurus Rex Страна: США
Жанр: мультфильм, короткометражка, комедия, семейный
Продолжительность: 7 мин.
Год выпуска: 2012
Перевод: Любительский (одноголосый закадровый) by Remy Dav
Русские субтитры: нет
Режиссёр: Марк А. Уолш / Mark A. Walsh
Роли озвучивали: Том Хэнкс, Тим Аллен, Уоллес Шоун, Кори Бертон, Тони Кокс, Дональд Фуллилов, Эмили Хан, Дон Риклз, Лори Алан, Эстель Харрис
Описание: Бедный Рекс. Другие игрушки думают, что он унылый и портит все вечеринки. Но когда Бонни решает поиграть с ним во время вечернего купания, из зануды он в одно мгновение превращается в… Веселозавра Рекса! Когда заразительное веселье, царящее в ванной, захватывает Базза, Вуди и других персонажей из «Истории игрушек», они вынуждены признать, что Рекс — настоящий король этой пенной вечеринки!
Качество: HDRip
Формат: AVI
Видео: Xvid, 720x400, ~1780 kbps, 25.000 fps
Аудио: mp3, 128 Kbps, 2 ch, 44.1 KHz
Субтитры: отсутствуют

Подробные технические данные

D:\Творчество\Веселозавр Рекс.avi
General
Complete name : D:\Творчество\Веселозавр Рекс.avi
Format : AVI
Format/Info : Audio Video Interleave
File size : 89.6 MiB
Duration : 6mn 31s
Overall bit rate : 1 918 Kbps
Writing application : VirtualDubMod 1.5.10.3 (build 2550/release)
Writing library : VirtualDubMod build 2550/release
Video #0
ID : 0
Format : MPEG-4 Visual
Format profile : Advanced Simple@L5
Format settings, BVOP : 2
Format settings, QPel : No
Format settings, GMC : No warppoints
Format settings, Matrix : Default (MPEG)
Muxing mode : Packed bitstream
Codec ID : XVID
Codec ID/Hint : XviD
Duration : 6mn 31s
Bit rate : 1 780 Kbps
Width : 720 pixels
Height : 400 pixels
Display aspect ratio : 16:9
Frame rate : 25.000 fps
Color space : YUV
Chroma subsampling : 4:2:0
Bit depth : 8 bits
Scan type : Progressive
Compression mode : Lossy
Bits/(Pixel*Frame) : 0.247
Stream size : 83.1 MiB (93%)
Writing library : XviD 64
Audio #1
ID : 1
Format : MPEG Audio
Format version : Version 1
Format profile : Layer 3
Mode : Joint stereo
Mode extension : MS Stereo
Codec ID : 55
Codec ID/Hint : MP3
Duration : 6mn 31s
Bit rate mode : Constant
Bit rate : 128 Kbps
Channel(s) : 2 channels
Sampling rate : 44.1 KHz
Compression mode : Lossy
Stream size : 5.98 MiB (7%)
Alignment : Split accross interleaves
Interleave, duration : 40 ms (1.00 video frame)
Interleave, preload duration : 500 ms
Writing library : LAME3.99r
Encoding settings : -m j -V 4 -q 3 -lowpass 17 -b 128

Скриншоты



Показать сообщения:    

Текущее время: 16-Дек 16:34

Часовой пояс: UTC ± 0


Вы не можете начинать темы
Вы не можете отвечать на сообщения
Вы не можете редактировать свои сообщения
Вы не можете удалять свои сообщения
Вы не можете голосовать в опросах
Вы не можете прикреплять файлы к сообщениям
Вы не можете скачивать файлы

!ВНИМАНИЕ!
Сайт не предоставляет электронные версии произведений, а занимается лишь коллекционированием и каталогизацией ссылок, присылаемых и публикуемых на форуме нашими читателями. Если вы являетесь правообладателем какого-либо представленного материала и не желаете, чтобы ссылка на него находилась в нашем каталоге, свяжитесь с нами, и мы незамедлительно удалим ее. Файлы для обмена на трекере предоставлены пользователями сайта, и администрация не несет ответственности за их содержание. Просьба не заливать файлы, защищенные авторскими правами, а также файлы нелегального содержания!