Важное объявление!
У Нас Все раздачи мультитрекерные, при нуле пиров в релизах, можете смело вставать на закачку!
 
Автор Сообщение

HUNTER

Стаж:
4 года 4 месяца
Сообщений:
56829

Репутация: 101

[+] [-]
Вне форума [Профиль] [ЛС]

Verizon IndyCar Series 2016. Этап 15. Grand Prix at The Glen.
Вид спорта: Автоспорт
Описание: 15 этап гоночной серии IndyCar.

1 Практика | NBCSN | EN | 720P

Дата/Год выпуска: 02.09.2016
Язык комментариев:Английский
Автор рипа/записи: Ales
Качество: HDTV
Формат видео: MKV
Видео: H264, 1280x720P, 30 кадр/c, 4 000 Kbps
Аудио: MP2 2.0, 48.0 KHz, 192 kb/s Английский (NBCSN)
Продолжительность
0:43:10

Скриншоты

MediaInfo

GeneralUnique ID : 205272102511546993621405702975973591496 (0x9A6DF809A97D553396DE8930996D89C8)Complete name : Z:\01.SYS\FASTTORRENT\Автоспорт\Indycar\INDYCAR_2016_R15_GRAND_PRIX_AT_THE_GLEN_WEEKEND\INDYCAR_2016_R15_GRAND_PRIX_AT_THE_GLEN_PRACTICE_ONE_NBCSN_ENG_720P.mkvFormat : MatroskaFormat version : Version 4 / Version 2File size : 1.21 GiBDuration : 43mn 10sOverall bit rate : 4 002 KbpsEncoded date : UTC 2016-09-03 18:36:44Writing application : mkvmerge v9.4.0 ('Knurl') 64bitWriting library : libebml v1.3.4 + libmatroska v1.4.5
VideoID : 2Format : AVCFormat/Info : Advanced Video CodecFormat profile : Main@L3Format settings, CABAC : YesFormat settings, ReFrames : 3 framesCodec ID : V_MPEG4/ISO/AVCDuration : 43mn 10sBit rate : 3 871 KbpsWidth : 1 280 pixelsHeight : 756 pixelsDisplay aspect ratio : 16:9Frame rate mode : VariableFrame rate : 29.970 (29970/1000) fpsOriginal frame rate : 25.000 fpsColor space : YUVChroma subsampling : 4:2:0Bit depth : 8 bitsScan type : ProgressiveBits/(Pixel*Frame) : 0.133Stream size : 1.17 GiB (97%)Default : YesForced : No
AudioID : 1Format : AACFormat/Info : Advanced Audio CodecFormat profile : LCCodec ID : A_AACDuration : 43mn 10sBit rate : 128 KbpsChannel(s) : 2 channelsChannel positions : Front: L RSampling rate : 44.1 KHzFrame rate : 43.066 fps (1024 spf)Compression mode : LossyDelay relative to video : -8msStream size : 39.6 MiB (3%)Language : EnglishDefault : YesForced : No

2 Практика | NBCSN | EN | 720P

Дата/Год выпуска: 02.09.2016
Язык комментариев:Английский
Автор рипа/записи: Ales
Качество: HDTV
Формат видео: MKV
Видео: H264, 1280x720P, 30 кадр/c, 4 000 Kbps
Аудио: MP2 2.0, 48.0 KHz, 192 kb/s Английский (NBCSN)
Продолжительность
1:32:42

Скриншоты

MediaInfo

GeneralUnique ID : 207422808819148897847935182680787764650 (0x9C0C2E0BA82D22E5B4AA266AAEEFC5AA)Complete name : Z:\01.SYS\FASTTORRENT\Автоспорт\Indycar\INDYCAR_2016_R15_GRAND_PRIX_AT_THE_GLEN_WEEKEND\INDYCAR_2016_R15_GRAND_PRIX_AT_THE_GLEN_PRACTICE_TWO_NBCSN_ENG_720P.mkvFormat : MatroskaFormat version : Version 4 / Version 2File size : 2.12 GiBDuration : 1h 32mnOverall bit rate : 3 267 KbpsEncoded date : UTC 2016-09-03 18:25:18Writing application : mkvmerge v9.4.0 ('Knurl') 64bitWriting library : libebml v1.3.4 + libmatroska v1.4.5
VideoID : 2Format : AVCFormat/Info : Advanced Video CodecFormat profile : Main@L3Format settings, CABAC : YesFormat settings, ReFrames : 3 framesCodec ID : V_MPEG4/ISO/AVCDuration : 1h 32mnBit rate : 3 134 KbpsWidth : 1 280 pixelsHeight : 756 pixelsDisplay aspect ratio : 16:9Frame rate mode : VariableFrame rate : 30.000 fpsColor space : YUVChroma subsampling : 4:2:0Bit depth : 8 bitsScan type : ProgressiveBits/(Pixel*Frame) : 0.108Stream size : 2.03 GiB (96%)Default : YesForced : No
AudioID : 1Format : AACFormat/Info : Advanced Audio CodecFormat profile : LCCodec ID : A_AACDuration : 1h 32mnBit rate : 128 KbpsChannel(s) : 2 channelsChannel positions : Front: L RSampling rate : 44.1 KHzFrame rate : 43.066 fps (1024 spf)Compression mode : LossyStream size : 85.0 MiB (4%)Default : YesForced : No

_________________
Показать сообщения:    

Текущее время: Сегодня 14:56

Часовой пояс: GMT



Вы не можете начинать темы
Вы не можете отвечать на сообщения
Вы не можете редактировать свои сообщения
Вы не можете удалять свои сообщения
Вы не можете голосовать в опросах
Вы не можете прикреплять файлы к сообщениям
Вы не можете скачивать файлы