Важное объявление!
У Нас Все раздачи мультитрекерные, при нуле пиров в релизах, можете смело вставать на закачку!
 
Автор Сообщение

HUNTER

Стаж:
4 года 4 месяца
Сообщений:
56798

Репутация: 101

[+] [-]
Вне форума [Профиль] [ЛС]

Verizon IndyCar Series 2016 / Этап 15 / Grand prix at the Glen. Watkins Glen International
[img=right]https://upload.wikimedia.org/wikipedia/ru/1/15/Veri...Series.png[/img]
Вид спорта: Автоспорт
Дата/Год выпуска: 05.09.2016
Язык комментариев: Русский (Сергей Беднарук) / Английский
Канал: Viasat Sport

Описание:
04 сентября 2016 года, воскресенье. 21:35 МСК
Арена: Международный автодром Уоткинс-Глен (Уоткинс-Глен, США)
Автор рипа/записи: _Steep_
Качество: IPTVRip
Формат видео: MKV
Видео: AVC/H.264, 720x400, 50 fps, ~2024 kb/s
Аудио1: русский, MP2, 2 ch, 48000 Hz, 192 Kbps
Аудио2: английский, MP2, 2 ch, 48000 Hz, 192 Kbps

Продолжительность

02:58:50

Скриншоты

Счёт/Итог

MediaInfo

ОбщееУникальный идентификатор : 242983689495632376070486693496226012502 (0xB6CCF4D3FDCFDD7089C1694D0D635D56)Полное имя : F:\ТВ\Verizon IndyCar\(2016.09.04)_VerizonIndyCar. Grand prix at the Glen. Watkins Glen International_(Viasat Sport)_IPTVRip_steep.mkvФормат : MatroskaВерсия формата : Version 4 / Version 2Размер файла : 2,85 ГбайтПродолжительность : 2 ч. 58 м.Общий поток : 2285 Кбит/секДата кодирования : UTC 2016-09-05 03:20:52Программа кодирования : mkvmerge v9.4.0 ('Knurl') 64bitБиблиотека кодирования : libebml v1.3.4 + libmatroska v1.4.5
ВидеоИдентификатор : 1Формат : AVCФормат/Информация : Advanced Video CodecПрофиль формата : High@L3.1Параметр CABAC формата : ДаПараметр ReFrames формата : 4 кадраИдентификатор кодека : V_MPEG4/ISO/AVCПродолжительность : 2 ч. 58 м.Битрейт : 2024 Кбит/секШирина : 720 пикселейВысота : 400 пикселейСоотношение сторон : 16:9Режим частоты кадров : ПостоянныйЧастота кадров : 50,000 кадров/секЦветовое пространство : YUVСубдискретизация насыщенности : 4:2:0Битовая глубина : 8 битТип развёртки : ПрогрессивнаяБит/(Пиксели*Кадры) : 0.141Размер потока : 2,53 Гбайт (89%)Библиотека кодирования : x264 core 148 r2705M 3f5ed56Настройки программы : cabac=1 / ref=2 / deblock=1:0:0 / analyse=0x3:0x133 / me=umh / subme=9 / psy=1 / psy_rd=1.00:0.20 / mixed_ref=1 / me_range=24 / chroma_me=1 / trellis=1 / 8x8dct=1 / cqm=0 / deadzone=21,11 / fast_pskip=1 / chroma_qp_offset=-3 / threads=4 / lookahead_threads=1 / sliced_threads=0 / nr=0 / decimate=1 / interlaced=0 / bluray_compat=0 / constrained_intra=0 / bframes=5 / b_pyramid=2 / b_adapt=2 / b_bias=0 / direct=1 / weightb=1 / open_gop=0 / weightp=2 / keyint=250 / keyint_min=25 / scenecut=40 / intra_refresh=0 / rc_lookahead=40 / rc=crf / mbtree=1 / crf=20.7 / qcomp=0.60 / qpmin=0 / qpmax=69 / qpstep=4 / ip_ratio=1.40 / aq=1:1.00Default : ДаForced : Нет
Аудио #1Идентификатор : 2Формат : AACФормат/Информация : Advanced Audio CodecПрофиль формата : LCИдентификатор кодека : A_AACПродолжительность : 2 ч. 58 м.Битрейт : 128 Кбит/секКаналы : 2 каналаРасположение каналов : Front: L RЧастота : 48,0 КГцЧастота кадров : 46,875 кадров/сек (1024 spf)Метод сжатия : С потерямиРазмер потока : 164 Мбайт (6%)Язык : RussianDefault : ДаForced : Нет
Аудио #2Идентификатор : 3Формат : AACФормат/Информация : Advanced Audio CodecПрофиль формата : LCИдентификатор кодека : A_AACПродолжительность : 2 ч. 58 м.Битрейт : 128 Кбит/секКаналы : 2 каналаРасположение каналов : Front: L RЧастота : 48,0 КГцЧастота кадров : 46,875 кадров/сек (1024 spf)Метод сжатия : С потерямиРазмер потока : 164 Мбайт (6%)Язык : EnglishDefault : НетForced : Нет

_________________
Показать сообщения:    

Текущее время: Сегодня 22:55

Часовой пояс: GMT



Вы не можете начинать темы
Вы не можете отвечать на сообщения
Вы не можете редактировать свои сообщения
Вы не можете удалять свои сообщения
Вы не можете голосовать в опросах
Вы не можете прикреплять файлы к сообщениям
Вы не можете скачивать файлы