Важное объявление!
У Нас Все раздачи мультитрекерные, при нуле пиров в релизах, можете смело вставать на закачку!
 
Автор Сообщение

HUNTER

Стаж:
4 года 4 месяца
Сообщений:
56798

Репутация: 101

[+] [-]
Вне форума [Профиль] [ЛС]

Verizon IndyCar Series 2016. Этап 15. Grand Prix at The Glen. Viasat Sport HD/Матч!Арена
Вид спорта: Автоспорт
Дата/Год выпуска: 04.09.2016
Язык комментариев: Русский (Сергея Беднарук), Русский (Владимир Башмаков (пустые промежутки у Арены комментирует Сергея Беднарук)) Английский
Описание: 15 этап гоночной серии IndyCar.
Автор рипа/записи: Ales
Качество: DVB-S2 Remux 1080i
Формат видео: MKV
Видео: H264, 1920x1080i, 25 кадр/c, 9 666 Kbps
Аудио:
1. MP2 2.0, 48.0 KHz, 192 kb/s Русский (Viasat Sport)
2. MP2 2.0, 48.0 KHz, 192 kb/s Русский (Матч!Арена)
3. MP2 2.0, 48.0 KHz, 192 kb/s Английский (NBCSN)

Продолжительность

2:58:47

Скриншоты

MediaInfo

GeneralUnique ID : 215395421043865871641037916258660617199 (0xA20BA62D33B64788944BB2F2B5718BEF)Complete name : Z:\01.SYS\FASTTORRENT\Автоспорт\Indycar\INDYCAR_2016_R15_GRAND_PRIX_AT_THE_GLEN_VIASAT_SPORT_HD_1080I.mkvFormat : MatroskaFormat version : Version 4 / Version 2File size : 12.8 GiBDuration : 2h 58mnOverall bit rate : 10.2 MbpsEncoded date : UTC 2016-09-04 21:57:23Writing application : mkvmerge v9.4.0 ('Knurl') 64bitWriting library : libebml v1.3.4 + libmatroska v1.4.5
VideoID : 1Format : AVCFormat/Info : Advanced Video CodecFormat profile : High@L4Format settings, CABAC : YesFormat settings, ReFrames : 4 framesCodec ID : V_MPEG4/ISO/AVCDuration : 2h 58mnBit rate : 9 638 KbpsWidth : 1 920 pixelsHeight : 1 080 pixelsDisplay aspect ratio : 16:9Frame rate mode : VariableFrame rate : 50.000 fpsOriginal frame rate : 25.000 fpsStandard : ComponentColor space : YUVChroma subsampling : 4:2:0Bit depth : 8 bitsScan type : InterlacedScan type, store method : Separated fieldsScan order : Top Field FirstBits/(Pixel*Frame) : 0.093Stream size : 12.0 GiB (94%)Default : YesForced : NoColor range : LimitedColor primaries : BT.709Transfer characteristics : BT.709Matrix coefficients : BT.709
Audio #1ID : 2Format : MPEG AudioFormat version : Version 1Format profile : Layer 2Codec ID : A_MPEG/L2Codec ID/Hint : MP2Duration : 2h 58mnBit rate mode : ConstantBit rate : 192 KbpsChannel(s) : 2 channelsSampling rate : 48.0 KHzFrame rate : 41.667 fps (1152 spf)Compression mode : LossyDelay relative to video : 41msStream size : 246 MiB (2%)Language : RussianDefault : YesForced : No
Audio #2ID : 3Format : MPEG AudioFormat version : Version 1Format profile : Layer 1Codec ID : A_MPEG/L1Codec ID/Hint : MP1Duration : 2h 58mnBit rate mode : ConstantBit rate : 192 KbpsChannel(s) : 2 channelsSampling rate : 48.0 KHzFrame rate : 125.000 fps (384 spf)Compression mode : LossyStream size : 246 MiB (2%)Language : RussianDefault : NoForced : No
Audio #3ID : 4Format : MPEG AudioFormat version : Version 1Format profile : Layer 2Codec ID : A_MPEG/L2Codec ID/Hint : MP2Duration : 2h 58mnBit rate mode : ConstantBit rate : 192 KbpsChannel(s) : 2 channelsSampling rate : 48.0 KHzFrame rate : 41.667 fps (1152 spf)Compression mode : LossyDelay relative to video : 41msStream size : 246 MiB (2%)Language : EnglishDefault : NoForced : No

_________________
Показать сообщения:    

Текущее время: Сегодня 20:18

Часовой пояс: GMT



Вы не можете начинать темы
Вы не можете отвечать на сообщения
Вы не можете редактировать свои сообщения
Вы не можете удалять свои сообщения
Вы не можете голосовать в опросах
Вы не можете прикреплять файлы к сообщениям
Вы не можете скачивать файлы