Важное объявление!
У Нас Все раздачи мультитрекерные, при нуле пиров в релизах, можете смело вставать на закачку!
 
Автор Сообщение

HUNTER

Стаж:
4 года 4 месяца
Сообщений:
56765

Репутация: 101

[+] [-]
Вне форума [Профиль] [ЛС]

Verizon IndyCar Series 2016. Этап 14. Firestone 600. Viasat Sport HD/Матч!Арена
Вид спорта: Автоспорт
Дата/Год выпуска: 28.08.2016
Язык комментариев: Русский (Сергея Беднарук), Русский (Владимир Башмаков (пустые промежутки у Арены комментирует Сергея Беднарук)) Английский
Описание: 14 этап гоночной серии IndyCar.
Автор рипа/записи: Ales
Качество: HDTV
Формат видео: MKV
Видео: H264, 1920x1080i, 25 кадр/c, 9 666 Kbps
Аудио:
1. MP2 2.0, 48.0 KHz, 192 kb/s Русский (Viasat Sport)
2. MP2 2.0, 48.0 KHz, 192 kb/s Английский (NBCSN)
3. MP2 2.0, 48.0 KHz, 192 kb/s Русский (Матч!Арена)

Продолжительность

2:00:45

Скриншоты

MediaInfo

GeneralUnique ID : 176077781324750298441431566956394957778 (0x847758DF714102348F7A7D974C3BCBD2)Complete name : Z:\01.SYS\FASTTORRENT\Автоспорт\Indycar\INDYCAR_2016_R14_FIRESTONE_600_VIASAT_SPORT_HD_1080I.mkvFormat : MatroskaFormat version : Version 4 / Version 2File size : 8.64 GiBDuration : 2h 0mnOverall bit rate : 10.2 MbpsEncoded date : UTC 2016-08-28 05:27:33Writing application : mkvmerge v9.4.0 ('Knurl') 64bitWriting library : libebml v1.3.4 + libmatroska v1.4.5
VideoID : 1Format : AVCFormat/Info : Advanced Video CodecFormat profile : High@L4Format settings, CABAC : YesFormat settings, ReFrames : 4 framesCodec ID : V_MPEG4/ISO/AVCDuration : 2h 0mnBit rate : 9 666 KbpsWidth : 1 920 pixelsHeight : 1 080 pixelsDisplay aspect ratio : 16:9Frame rate mode : VariableFrame rate : 50.000 fpsOriginal frame rate : 25.000 fpsStandard : ComponentColor space : YUVChroma subsampling : 4:2:0Bit depth : 8 bitsScan type : InterlacedScan type, store method : Separated fieldsScan order : Top Field FirstBits/(Pixel*Frame) : 0.093Stream size : 8.15 GiB (94%)Default : YesForced : NoColor range : LimitedColor primaries : BT.709Transfer characteristics : BT.709Matrix coefficients : BT.709
Audio #1ID : 2Format : MPEG AudioFormat version : Version 1Format profile : Layer 2Codec ID : A_MPEG/L2Codec ID/Hint : MP2Duration : 2h 0mnBit rate mode : ConstantBit rate : 192 KbpsChannel(s) : 2 channelsSampling rate : 48.0 KHzFrame rate : 41.659 fps (1152 spf)Compression mode : LossyDelay relative to video : 9msStream size : 166 MiB (2%)Language : RussianDefault : YesForced : No
Audio #2ID : 3Format : MPEG AudioFormat version : Version 1Format profile : Layer 2Codec ID : A_MPEG/L2Codec ID/Hint : MP2Duration : 2h 0mnBit rate mode : ConstantBit rate : 192 KbpsChannel(s) : 2 channelsSampling rate : 48.0 KHzFrame rate : 41.659 fps (1152 spf)Compression mode : LossyDelay relative to video : 9msStream size : 166 MiB (2%)Language : EnglishDefault : NoForced : No
Audio #3ID : 4Format : MPEG AudioFormat version : Version 1Format profile : Layer 2Codec ID : A_MPEG/L2Codec ID/Hint : MP2Duration : 2h 0mnBit rate mode : ConstantBit rate : 192 KbpsChannel(s) : 2 channelsSampling rate : 48.0 KHzFrame rate : 41.667 fps (1152 spf)Compression mode : LossyStream size : 166 MiB (2%)Language : RussianDefault : NoForced : No

_________________
Показать сообщения:    

Текущее время: Сегодня 02:49

Часовой пояс: GMT



Вы не можете начинать темы
Вы не можете отвечать на сообщения
Вы не можете редактировать свои сообщения
Вы не можете удалять свои сообщения
Вы не можете голосовать в опросах
Вы не можете прикреплять файлы к сообщениям
Вы не можете скачивать файлы