Важное объявление!
У Нас Все раздачи мультитрекерные, при нуле пиров в релизах, можете смело вставать на закачку!
 
Автор Сообщение

HUNTER

Стаж:
4 года 4 месяца
Сообщений:
56765

Репутация: 101

[+] [-]
Вне форума [Профиль] [ЛС]

Verizon IndyCar Series 2016 / Этап 13 / Honda Indy 200 At Mid-Ohio
[img=right]https://upload.wikimedia.org/wikipedia/ru/1/15/Veri...Series.png[/img]
Вид спорта: Автоспорт
Дата/Год выпуска: 31.07.2016
Язык комментариев: Русский (Владимир Башмаков)
Канал: Матч Арена HD
Описание:
31 июля 2016 года, воскресенье. 21:35 МСК
Этап 13, Лексингтон (Огайо), США
Хонда Инди-200
Арена: Трасса Мид-Огайо (Лексингтон, США)
Автор рипа/записи: _Steep_
Качество: HDTVRip
Формат видео: MKV
Видео: AVC/H.264, 720x400, 50 fps, ~1565 kb/s
Аудио: русский, MP2, 2 ch, 48000 Hz, 192 Kbps

Продолжительность

02:07:19

Скриншоты

Счёт/Итог

MediaInfo

ОбщееУникальный идентификатор : 252228714163149357075594779455065414553 (0xBDC17BBC70886990993A1569C74BDB99)Полное имя : F:\ТВ\Verizon IndyCar\(31.07.2016)_VerizonIndyCar. Honda Indy 200 At Mid-Ohio_(Матч Арена HD)_HDTVRip_400p_50fps_steep.mkvФормат : MatroskaВерсия формата : Version 4 / Version 2Размер файла : 1,57 ГбайтПродолжительность : 2 ч. 7 м.Общий поток : 1761 Кбит/секДата кодирования : UTC 2016-08-01 11:19:12Программа кодирования : mkvmerge v9.3.1 ('Mask Machine') 64bitБиблиотека кодирования : libebml v1.3.4 + libmatroska v1.4.5
ВидеоИдентификатор : 1Формат : AVCФормат/Информация : Advanced Video CodecПрофиль формата : High@L3.1Параметр CABAC формата : ДаПараметр ReFrames формата : 8 кадровИдентификатор кодека : V_MPEG4/ISO/AVCПродолжительность : 2 ч. 7 м.Битрейт : 1565 Кбит/секШирина : 720 пикселейВысота : 400 пикселейСоотношение сторон : 16:9Режим частоты кадров : ПостоянныйЧастота кадров : 50,000 кадров/секЦветовое пространство : YUVСубдискретизация насыщенности : 4:2:0Битовая глубина : 8 битТип развёртки : ПрогрессивнаяБит/(Пиксели*Кадры) : 0.109Размер потока : 1,39 Гбайт (89%)Библиотека кодирования : x264 core 148 r2705M 3f5ed56Настройки программы : cabac=1 / ref=8 / deblock=1:0:0 / analyse=0x3:0x133 / me=umh / subme=9 / psy=1 / psy_rd=1.05:0.10 / mixed_ref=1 / me_range=24 / chroma_me=1 / trellis=2 / 8x8dct=1 / cqm=0 / deadzone=21,11 / fast_pskip=1 / chroma_qp_offset=-3 / threads=4 / lookahead_threads=1 / sliced_threads=0 / nr=0 / decimate=1 / interlaced=0 / bluray_compat=0 / constrained_intra=0 / bframes=6 / b_pyramid=2 / b_adapt=2 / b_bias=0 / direct=3 / weightb=1 / open_gop=0 / weightp=2 / keyint=250 / keyint_min=25 / scenecut=40 / intra_refresh=0 / rc_lookahead=40 / rc=crf / mbtree=1 / crf=21.0 / qcomp=0.70 / qpmin=3 / qpmax=69 / qpstep=4 / ip_ratio=1.40 / aq=2:1.00Default : ДаForced : НетЦветовой диапазон : LimitedОсновные цвета : BT.709Характеристики трансфера : BT.709Коэффициенты матрицы : BT.709
АудиоИдентификатор : 2Формат : MPEG AudioВерсия формата : Version 1Профиль формата : Layer 2Идентификатор кодека : A_MPEG/L2Идентификатор кодека/Подсказка : MP2Продолжительность : 2 ч. 7 м.Вид битрейта : ПостоянныйБитрейт : 192 Кбит/секКаналы : 2 каналаЧастота : 48,0 КГцЧастота кадров : 41,667 кадра/сек (1152 spf)Метод сжатия : С потерямиРазмер потока : 175 Мбайт (11%)Язык : RussianDefault : ДаForced : Нет

_________________
Показать сообщения:    

Текущее время: Сегодня 01:25

Часовой пояс: GMT



Вы не можете начинать темы
Вы не можете отвечать на сообщения
Вы не можете редактировать свои сообщения
Вы не можете удалять свои сообщения
Вы не можете голосовать в опросах
Вы не можете прикреплять файлы к сообщениям
Вы не можете скачивать файлы