Важное объявление!
У Нас Все раздачи мультитрекерные, при нуле пиров в релизах, можете смело вставать на закачку!
 
Автор Сообщение

HUNTER

Стаж:
4 года 4 месяца
Сообщений:
56853

Репутация: 101

[+] [-]
Вне форума [Профиль] [ЛС]

Verizon IndyCar Series 2016 / Этап 13 / Honda Indy 200 At Mid-Ohio
[img=right]https://upload.wikimedia.org/wikipedia/ru/1/15/Veri...Series.png[/img]
Вид спорта: Автоспорт
Дата/Год выпуска: 31.07.2016
Язык комментариев: Русский (Владимир Башмаков)
Канал: Матч Арена HD
Описание:
31 июля 2016 года, воскресенье. 21:35 МСК
Этап 13, Лексингтон (Огайо), США
Хонда Инди-200
Арена: Трасса Мид-Огайо (Лексингтон, США)
Автор рипа/записи: _Steep_
Качество: HDTV
Формат видео: TS
Видео: AVC/H.264, 1920x1080, 25 fps, ~7913 kb/s
Аудио: русский, MP2, 2 ch, 48000 Hz, 192 Kbps

Продолжительность

02:07:19

Скриншоты

MediaInfo

ОбщееИдентификатор : 1 (0x1)Полное имя : F:\ТВ\Verizon IndyCar\(31.07.2016)_VerizonIndyCar. Honda Indy 200 At Mid-Ohio_(Матч Арена HD)_HDTV_1080i_steep.tsФормат : MPEG-TSРазмер файла : 7,58 ГбайтПродолжительность : 2 ч. 7 м.Режим общего битрейта : ПеременныйОбщий поток : 8528 Кбит/сек
ВидеоИдентификатор : 324 (0x144)Идентификатор меню : 12104 (0x2F48)Формат : AVCФормат/Информация : Advanced Video CodecПрофиль формата : High@L4Параметр CABAC формата : ДаПараметр ReFrames формата : 4 кадраИдентификатор кодека : 27Продолжительность : 2 ч. 7 м.Битрейт : 7913 Кбит/секШирина : 1920 пикселейВысота : 1080 пикселейСоотношение сторон : 16:9Частота кадров : 25,000 кадров/секСтандарт вещания : ComponentЦветовое пространство : YUVСубдискретизация насыщенности : 4:2:0Битовая глубина : 8 битТип развёртки : ЧересстрочнаяМетод сохранения типа развёртки : Раздельные поляПорядок развёртки : Верхнее поле первоеБит/(Пиксели*Кадры) : 0.153Размер потока : 7,04 Гбайт (93%)Цветовой диапазон : LimitedОсновные цвета : BT.709Характеристики трансфера : BT.709Коэффициенты матрицы : BT.709
АудиоИдентификатор : 404 (0x194)Идентификатор меню : 12104 (0x2F48)Формат : MPEG AudioВерсия формата : Version 1Профиль формата : Layer 2Идентификатор кодека : 3Продолжительность : 2 ч. 7 м.Вид битрейта : ПостоянныйБитрейт : 192 Кбит/секКаналы : 2 каналаЧастота : 48,0 КГцМетод сжатия : С потерямиРазмер потока : 175 Мбайт (2%)Язык : Russian

_________________
Показать сообщения:    

Текущее время: Сегодня 12:36

Часовой пояс: GMT



Вы не можете начинать темы
Вы не можете отвечать на сообщения
Вы не можете редактировать свои сообщения
Вы не можете удалять свои сообщения
Вы не можете голосовать в опросах
Вы не можете прикреплять файлы к сообщениям
Вы не можете скачивать файлы
Наши партнеры: интернет магазин Ивановского трикотажа textilla.ru