Важное объявление!
У Нас Все раздачи мультитрекерные, при нуле пиров в релизах, можете смело вставать на закачку!
 
Автор Сообщение

HUNTER

Стаж:
4 года 4 месяца
Сообщений:
56765

Репутация: 101

[+] [-]
Вне форума [Профиль] [ЛС]

Verizon IndyCar Series 2016. Этап 13. ABC Supply 500. Pocono Raceway. Viasat Sport HD
Вид спорта: Автоспорт
Дата/Год выпуска: 21.08.2016
Язык комментариев: Русский (Сергей Бендарук), Английский
Описание: 13 этап гоночной серии IndyCar.
Старт гонки перенесён на завтра в полдень по местному времени.
Автор рипа/записи: Ales
Качество: HDTV
Формат видео: MKV
Видео: H264, 1920x1080i, 25 кадр/c, 9 329 Kbps
Аудио: MP2 2.0, 48.0 KHz, 192 kb/s

Отменённый старт

Продолжительность
0:17:35

Скриншоты

MediaInfo

GeneralUnique ID : 202970949535091062131416347357583553085 (0x98B2C86FBDBA4AE3BBA0013625DCB23D)Complete name : Z:\01.SYS\FASTTORRENT\Автоспорт\Indycar\INDYCAR_2016_R13_ABC_SUPPLY_500_POCONO_RACEWAY_VIASAT_SPORT_HD_1080I_ABORT_START.mkvFormat : MatroskaFormat version : Version 4 / Version 2File size : 1.14 GiBDuration : 17mn 35sOverall bit rate : 9 256 KbpsEncoded date : UTC 2016-08-21 19:46:47Writing application : mkvmerge v8.9.0 ('Father Daughter') 64bitWriting library : libebml v1.3.3 + libmatroska v1.4.4
VideoID : 1Format : AVCFormat/Info : Advanced Video CodecFormat profile : High@L4Format settings, CABAC : YesFormat settings, ReFrames : 4 framesCodec ID : V_MPEG4/ISO/AVCDuration : 17mn 35sBit rate : 8 868 KbpsWidth : 1 920 pixelsHeight : 1 080 pixelsDisplay aspect ratio : 16:9Frame rate mode : VariableFrame rate : 50.000 fpsOriginal frame rate : 25.000 fpsStandard : ComponentColor space : YUVChroma subsampling : 4:2:0Bit depth : 8 bitsScan type : InterlacedScan type, store method : Separated fieldsScan order : Top Field FirstBits/(Pixel*Frame) : 0.086Stream size : 1.09 GiB (96%)Default : YesForced : NoColor range : LimitedColor primaries : BT.709Transfer characteristics : BT.709Matrix coefficients : BT.709
Audio #1ID : 2Format : MPEG AudioFormat version : Version 1Format profile : Layer 2Codec ID : A_MPEG/L2Codec ID/Hint : MP2Duration : 17mn 34sBit rate mode : ConstantBit rate : 192 KbpsChannel(s) : 2 channelsSampling rate : 48.0 KHzFrame rate : 41.667 fps (1152 spf)Compression mode : LossyDelay relative to video : 137msStream size : 24.1 MiB (2%)Language : RussianDefault : YesForced : No
Audio #2ID : 3Format : MPEG AudioFormat version : Version 1Format profile : Layer 2Codec ID : A_MPEG/L2Codec ID/Hint : MP2Duration : 17mn 34sBit rate mode : ConstantBit rate : 192 KbpsChannel(s) : 2 channelsSampling rate : 48.0 KHzFrame rate : 41.667 fps (1152 spf)Compression mode : LossyDelay relative to video : 137msStream size : 24.1 MiB (2%)Language : EnglishDefault : NoForced : No

_________________
Показать сообщения:    

Текущее время: Сегодня 20:53

Часовой пояс: GMT



Вы не можете начинать темы
Вы не можете отвечать на сообщения
Вы не можете редактировать свои сообщения
Вы не можете удалять свои сообщения
Вы не можете голосовать в опросах
Вы не можете прикреплять файлы к сообщениям
Вы не можете скачивать файлы