Важное объявление!
У Нас Все раздачи мультитрекерные, при нуле пиров в релизах, можете смело вставать на закачку!
 
Автор Сообщение

HUNTER

Стаж:
4 года 4 месяца
Сообщений:
56842

Репутация: 101

[+] [-]
Вне форума [Профиль] [ЛС]

Verizon IndyCar Series 2016. Этап 12. Honda Indy 200 at Mid-Ohio. Viasat Sport HD
Вид спорта: Автоспорт
Дата/Год выпуска: 31.07.2016
Язык комментариев: Русский (Сергей Бендарук), Английский
Описание: 12 этап гоночной серии IndyCar.
Автор рипа/записи: Ales
Качество: HDTV
Формат видео: TS
Видео: H264, 1920x1080i, 25 кадр/c, 9 329 Kbps
Аудио: MP2 2.0, 48.0 KHz, 192 kb/s

Продолжительность

2:43:56

Скриншоты

MediaInfo

GeneralID : 17 (0x11)Complete name : K:\Indycar\INDYCAR_2016_R12_HONDA_INDY_200_MID_OHIO_VIASAT_SPORT_HD.TSFormat : MPEG-TSFile size : 11.3 GiBDuration : 2h 37mnOverall bit rate mode : VariableOverall bit rate : 10.2 Mbps
VideoID : 306 (0x132)Menu ID : 17106 (0x42D2)Format : AVCFormat/Info : Advanced Video CodecFormat profile : High@L4Format settings, CABAC : YesFormat settings, ReFrames : 4 framesCodec ID : 27Duration : 2h 37mnBit rate : 9 329 KbpsWidth : 1 920 pixelsHeight : 1 080 pixelsDisplay aspect ratio : 16:9Frame rate : 25.000 fpsStandard : ComponentColor space : YUVChroma subsampling : 4:2:0Bit depth : 8 bitsScan type : InterlacedScan type, store method : Separated fieldsScan order : Top Field FirstBits/(Pixel*Frame) : 0.180Stream size : 10.3 GiB (91%)Color range : LimitedColor primaries : BT.709Transfer characteristics : BT.709Matrix coefficients : BT.709
Audio #1ID : 406 (0x196)Menu ID : 17106 (0x42D2)Format : MPEG AudioFormat version : Version 1Format profile : Layer 2Codec ID : 4Duration : 2h 37mnBit rate mode : ConstantBit rate : 192 KbpsChannel(s) : 2 channelsSampling rate : 48.0 KHzCompression mode : LossyDelay relative to video : 138msStream size : 217 MiB (2%)Language : RussianLanguage, more info : Clean effects
Audio #2ID : 416 (0x1A0)Menu ID : 17106 (0x42D2)Format : MPEG AudioFormat version : Version 1Format profile : Layer 2Codec ID : 4Duration : 2h 37mnBit rate mode : ConstantBit rate : 192 KbpsChannel(s) : 2 channelsSampling rate : 48.0 KHzCompression mode : LossyDelay relative to video : 138msStream size : 217 MiB (2%)Language : EnglishLanguage, more info : Clean effects

_________________
Показать сообщения:    

Текущее время: Сегодня 12:14

Часовой пояс: GMT



Вы не можете начинать темы
Вы не можете отвечать на сообщения
Вы не можете редактировать свои сообщения
Вы не можете удалять свои сообщения
Вы не можете голосовать в опросах
Вы не можете прикреплять файлы к сообщениям
Вы не можете скачивать файлы