Важное объявление!
У Нас Все раздачи мультитрекерные, при нуле пиров в релизах, можете смело вставать на закачку!
 
Автор Сообщение

HUNTER

Стаж:
4 года 10 месяцев
Сообщений:
65506

Репутация: 101

[+] [-]
Вне форума [Профиль] [ЛС]

Verizon IndyCar Series 2016. Этап 9 (14). Firestone 600. Матч Арена HD
Вид спорта: Top American Open Wheels
Дата/Год выпуска: 27.08.2016
Язык комментариев: Русский (В. Башмаков)
Описание: Продолжение прерванного девятого этапа гоночной серии Индикар 2016 года. Ночная гонка на овальной трассе Тексас Мотор Спидвэй.
Качество: HDTV
Формат видео: TS in MKV
Видео: H264, 1920x1080i, 25 кадр/c, ~8000 kb/s
Аудио: MP2, stereo 48000 Hz, 192 kb/s

Продолжительность

01:56:30

Скриншоты

MediaInfo

General
Unique ID : 18180461593097097998497389479818179700 (0xDAD6DF63C12D9D4A184818D4F0C3474)
Complete name : E:\Torrents\IndyCar-20160827-TexasFirestone600-RU-1080i.mkv
Format : Matroska
Format version : Version 2
File size : 6.90 GiB
Duration : 1h 56mn
Overall bit rate : 8 482 Kbps
Writing application : Lavf54.63.104
Writing library : Lavf54.63.104
Video
ID : 1
Format : AVC
Format/Info : Advanced Video Codec
Format profile : High@L4
Format settings, CABAC : Yes
Format settings, ReFrames : 4 frames
Codec ID : V_MPEG4/ISO/AVC
Duration : 1h 56mn
Bit rate : 8 121 Kbps
Width : 1 920 pixels
Height : 1 080 pixels
Display aspect ratio : 16:9
Frame rate mode : Constant
Frame rate : 25.000 fps
Standard : Component
Color space : YUV
Chroma subsampling : 4:2:0
Bit depth : 8 bits
Scan type : Interlaced
Scan order : Top Field First
Bits/(Pixel*Frame) : 0.157
Stream size : 6.61 GiB (96%)
Default : Yes
Forced : No
Color range : Limited
Color primaries : BT.709
Transfer characteristics : BT.709
Matrix coefficients : BT.709
Audio
ID : 2
Format : MPEG Audio
Format version : Version 1
Format profile : Layer 2
Codec ID : A_MPEG/L2
Codec ID/Hint : MP2
Duration : 1h 56mn
Bit rate mode : Constant
Bit rate : 192 Kbps
Channel(s) : 2 channels
Sampling rate : 48.0 KHz
Compression mode : Lossy
Delay relative to video : 17ms
Stream size : 160 MiB (2%)
Default : Yes
Forced : No

_________________
Показать сообщения:    

Текущее время: Сегодня 13:37

Часовой пояс: GMT



Вы не можете начинать темы
Вы не можете отвечать на сообщения
Вы не можете редактировать свои сообщения
Вы не можете удалять свои сообщения
Вы не можете голосовать в опросах
Вы не можете прикреплять файлы к сообщениям
Вы не можете скачивать файлы