Важное объявление!
У Нас Все раздачи мультитрекерные, при нуле пиров в релизах, можете смело вставать на закачку!
Статистика раздачи
Размер:     |    Зарегистрирован:     |    Скачан:     |   
Нет
 
     
 
 
Автор Сообщение

HUNTER

Стаж:
5 лет 1 месяц
Сообщений:
68439

Репутация: 101

[+] [-]
Вне форума [Профиль] [ЛС]

Verizon IndyCar Series 2016. Этап 16. GoPro Grand Prix of Sonoma. Viasat Sport HD/Матч!Арена
Вид спорта: Автоспорт
Дата/Год выпуска: 18.09.2016
Язык комментариев: Русский (Сергея Беднарук), Русский (Владимир Башмаков (пустые промежутки у Арены комментирует Сергея Беднарук)) Английский
Описание: 16 этап гоночной серии IndyCar.
Автор рипа/записи: Ales
Качество: DVB-S2 Rip 720P
Формат видео: MKV
Видео: H264, 1280x720P, 50 кадр/c, 3 500 Kbps
Аудио:
1. MP2 2.0, 48.0 KHz, 192 kb/s Русский (Viasat Sport)
2. AAC 2.0, 48.0 KHz, 320 kb/s Русский (Матч!Арена)
3. MP2 2.0, 48.0 KHz, 192 kb/s Английский (NBCSN)

Продолжительность

2:53:19

Скриншоты

MediaInfo

GeneralUnique ID : 236020613071518627921825125687637892380 (0xB18FEAA7A797E8C6BBEF0291C958DD1C)Complete name : Z:\01.SYS\FASTTORRENT\Автоспорт\Indycar\INDYCAR_2016_R16_GOPRO_GRAND_PRIX_OF_SONOMA_720P.MKVFormat : MatroskaFormat version : Version 4 / Version 2File size : 5.09 GiBDuration : 2h 53mnOverall bit rate mode : VariableOverall bit rate : 4 205 KbpsEncoded date : UTC 2016-09-19 12:29:44Writing application : mkvmerge v9.4.0 ('Knurl') 64bitWriting library : libebml v1.3.4 + libmatroska v1.4.5
VideoID : 1Format : AVCFormat/Info : Advanced Video CodecFormat profile : High@L3.2Format settings, CABAC : YesFormat settings, ReFrames : 2 framesFormat settings, GOP : M=3, N=12Codec ID : V_MPEG4/ISO/AVCDuration : 2h 53mnBit rate mode : VariableBit rate : 3 498 KbpsMaximum bit rate : 5 000 KbpsWidth : 1 280 pixelsHeight : 720 pixelsDisplay aspect ratio : 16:9Frame rate mode : ConstantFrame rate : 50.000 fpsColor space : YUVChroma subsampling : 4:2:0Bit depth : 8 bitsScan type : ProgressiveBits/(Pixel*Frame) : 0.076Stream size : 4.24 GiB (83%)Default : YesForced : No
Audio #1ID : 2Format : MPEG AudioFormat version : Version 1Format profile : Layer 2Codec ID : A_MPEG/L2Codec ID/Hint : MP2Duration : 2h 53mnBit rate mode : ConstantBit rate : 192 KbpsChannel(s) : 2 channelsSampling rate : 48.0 KHzFrame rate : 41.666 fps (1152 spf)Compression mode : LossyDelay relative to video : 9msStream size : 238 MiB (5%)Language : RussianDefault : YesForced : No
Audio #2ID : 3Format : AACFormat/Info : Advanced Audio CodecFormat profile : LCCodec ID : A_AACDuration : 2h 53mnBit rate : 317 KbpsChannel(s) : 2 channelsChannel positions : Front: L RSampling rate : 48.0 KHzFrame rate : 46.875 fps (1024 spf)Compression mode : LossyStream size : 393 MiB (8%)Language : RussianDefault : NoForced : No
Audio #3ID : 4Format : MPEG AudioFormat version : Version 1Format profile : Layer 2Codec ID : A_MPEG/L2Codec ID/Hint : MP2Duration : 2h 53mnBit rate mode : ConstantBit rate : 192 KbpsChannel(s) : 2 channelsSampling rate : 48.0 KHzFrame rate : 41.666 fps (1152 spf)Compression mode : LossyDelay relative to video : 9msStream size : 238 MiB (5%)Language : EnglishDefault : NoForced : No

_________________
Показать сообщения:    

Текущее время: Сегодня 04:19

Часовой пояс: GMT



Вы не можете начинать темы
Вы не можете отвечать на сообщения
Вы не можете редактировать свои сообщения
Вы не можете удалять свои сообщения
Вы не можете голосовать в опросах
Вы не можете прикреплять файлы к сообщениям
Вы не можете скачивать файлы