Важное объявление!
У Нас Все раздачи мультитрекерные, при нуле пиров в релизах, можете смело вставать на закачку!
Статистика раздачи
Размер:     |    Зарегистрирован:     |    Скачан:     |   
Нет
 
     
 
 
Автор Сообщение

HUNTER

Стаж:
5 лет 1 месяц
Сообщений:
68426

Репутация: 101

[+] [-]
Вне форума [Профиль] [ЛС]

Verizon IndyCar Series 2016. Этап 16. GoPro Grand Prix of Sonoma. Viasat Sport HD/Матч!Арена
Вид спорта: Автоспорт
Дата/Год выпуска: 18.09.2016
Язык комментариев: Русский (Сергея Беднарук), Русский (Владимир Башмаков (пустые промежутки у Арены комментирует Сергея Беднарук)) Английский
Описание: 16 этап гоночной серии IndyCar.
Автор рипа/записи: Ales
Качество: DVB-S2 Remux 1080i
Формат видео: MKV
Видео: H264, 1920x1080i, 25 кадр/c, 9 666 Kbps
Аудио:
1. MP2 2.0, 48.0 KHz, 192 kb/s Русский (Viasat Sport)
2. AAC 2.0, 48.0 KHz, 320 kb/s Русский (Матч!Арена)
3. MP2 2.0, 48.0 KHz, 192 kb/s Английский (NBCSN)

Продолжительность

2:53:19

Скриншоты

MediaInfo

GeneralUnique ID : 176781018892064269386484455070032118766 (0x84FEC9296CE61483A4C317BA39CEC3EE)Complete name : Z:\01.SYS\FASTTORRENT\Автоспорт\Indycar\INDYCAR_2016_R16_GOPRO_GRAND_PRIX_OF_SONOMA_1080I.MKVFormat : MatroskaFormat version : Version 4 / Version 2File size : 12.4 GiBDuration : 2h 53mnOverall bit rate : 10.3 MbpsEncoded date : UTC 2016-09-19 03:01:09Writing application : mkvmerge v9.4.0 ('Knurl') 64bitWriting library : libebml v1.3.4 + libmatroska v1.4.5
VideoID : 1Format : AVCFormat/Info : Advanced Video CodecFormat profile : High@L4Format settings, CABAC : YesFormat settings, ReFrames : 4 framesCodec ID : V_MPEG4/ISO/AVCDuration : 2h 53mnBit rate : 9 557 KbpsWidth : 1 920 pixelsHeight : 1 080 pixelsDisplay aspect ratio : 16:9Frame rate mode : VariableFrame rate : 50.000 fpsOriginal frame rate : 25.000 fpsStandard : ComponentColor space : YUVChroma subsampling : 4:2:0Bit depth : 8 bitsScan type : InterlacedScan type, store method : Separated fieldsScan order : Top Field FirstBits/(Pixel*Frame) : 0.092Stream size : 11.6 GiB (93%)Default : YesForced : NoColor range : LimitedColor primaries : BT.709Transfer characteristics : BT.709Matrix coefficients : BT.709
Audio #1ID : 2Format : MPEG AudioFormat version : Version 1Format profile : Layer 2Codec ID : A_MPEG/L2Codec ID/Hint : MP2Duration : 2h 53mnBit rate mode : ConstantBit rate : 192 KbpsChannel(s) : 2 channelsSampling rate : 48.0 KHzFrame rate : 41.666 fps (1152 spf)Compression mode : LossyDelay relative to video : 9msStream size : 238 MiB (2%)Language : RussianDefault : YesForced : No
Audio #2ID : 3Format : AACFormat/Info : Advanced Audio CodecFormat profile : LCCodec ID : A_AACDuration : 2h 53mnBit rate : 317 KbpsChannel(s) : 2 channelsChannel positions : Front: L RSampling rate : 48.0 KHzFrame rate : 46.875 fps (1024 spf)Compression mode : LossyStream size : 393 MiB (3%)Language : RussianDefault : NoForced : No
Audio #3ID : 4Format : MPEG AudioFormat version : Version 1Format profile : Layer 2Codec ID : A_MPEG/L2Codec ID/Hint : MP2Duration : 2h 53mnBit rate mode : ConstantBit rate : 192 KbpsChannel(s) : 2 channelsSampling rate : 48.0 KHzFrame rate : 41.666 fps (1152 spf)Compression mode : LossyDelay relative to video : 9msStream size : 238 MiB (2%)Language : EnglishDefault : NoForced : No

_________________
Показать сообщения:    

Текущее время: Сегодня 01:59

Часовой пояс: GMT



Вы не можете начинать темы
Вы не можете отвечать на сообщения
Вы не можете редактировать свои сообщения
Вы не можете удалять свои сообщения
Вы не можете голосовать в опросах
Вы не можете прикреплять файлы к сообщениям
Вы не можете скачивать файлы