Ивановский Торрент трекер
Яндекс.Погода
 

[Цитировать]
HUNTER

Verizon IndyCar Series 2016 / Этап 16 / Gopro grand prix of Sonoma
Вид спорта: Автоспорт
Дата/Год выпуска: 18.09.2016
Язык комментариев: Русский (Владимир Башмаков)
Канал: Матч Арена HD

Описание:
Арена: Автодром Сонома (Сонома, США)
Автор рипа/записи: _Steep_
Качество: HDTVRip
Формат видео: MKV
Видео: AVC/H.264, 1280x720, 50 fps, ~3920 kb/s
Аудио: русский, AAC, 2 ch, 48000 Hz, 128 Kbps

Продолжительность

02:25:01

Скриншоты

Счёт/Итог

MediaInfo

ОбщееУникальный идентификатор : 182039449190015275000699560722550279654 (0x88F385CAC89497C0BF856D34534CCDE6)Полное имя : F:\ТВ\Verizon IndyCar\(2016.09.18)_VerizonIndyCar. Gopro grand prix of Sonoma_(Матч Арена HD)_HDTVRip_720p_steep.mkvФормат : MatroskaВерсия формата : Version 4 / Version 2Размер файла : 4,10 ГбайтПродолжительность : 2 ч. 25 м.Общий поток : 4051 Кбит/секДата кодирования : UTC 2016-09-20 00:58:12Программа кодирования : mkvmerge v9.4.2 ('So High') 64bitБиблиотека кодирования : libebml v1.3.4 + libmatroska v1.4.5 / Lavf57.41.100ENCODING_INFO : MPEGTS > MKV / H264 > X264 CRF 20.0 Произвольный / MP2 > AAC CBR 128kbps LC
ВидеоИдентификатор : 1Формат : AVCФормат/Информация : Advanced Video CodecПрофиль формата : High@L3.2Параметр CABAC формата : ДаПараметр ReFrames формата : 4 кадраИдентификатор кодека : V_MPEG4/ISO/AVCПродолжительность : 2 ч. 25 м.Битрейт : 3920 Кбит/секШирина : 1280 пикселейВысота : 720 пикселейСоотношение сторон : 16:9Режим частоты кадров : ПостоянныйЧастота кадров : 50,000 кадров/секЦветовое пространство : YUVСубдискретизация насыщенности : 4:2:0Битовая глубина : 8 битТип развёртки : ПрогрессивнаяБит/(Пиксели*Кадры) : 0.085Размер потока : 3,97 Гбайт (97%)Библиотека кодирования : x264 core 148 r2705M 3f5ed56Настройки программы : cabac=1 / ref=2 / deblock=1:-2:-2 / analyse=0x3:0x133 / me=umh / subme=9 / psy=1 / psy_rd=1.00:0.20 / mixed_ref=1 / me_range=24 / chroma_me=1 / trellis=1 / 8x8dct=1 / cqm=0 / deadzone=21,11 / fast_pskip=1 / chroma_qp_offset=-3 / threads=4 / lookahead_threads=1 / sliced_threads=0 / nr=0 / decimate=1 / interlaced=0 / bluray_compat=0 / constrained_intra=0 / bframes=7 / b_pyramid=2 / b_adapt=2 / b_bias=0 / direct=1 / weightb=1 / open_gop=0 / weightp=2 / keyint=250 / keyint_min=25 / scenecut=40 / intra_refresh=0 / rc_lookahead=40 / rc=crf / mbtree=1 / crf=20.0 / qcomp=0.60 / qpmin=0 / qpmax=69 / qpstep=4 / ip_ratio=1.40 / aq=1:1.00Default : ДаForced : НетЦветовой диапазон : LimitedОсновные цвета : BT.709Характеристики трансфера : BT.709Коэффициенты матрицы : BT.709
АудиоИдентификатор : 2Формат : AACФормат/Информация : Advanced Audio CodecПрофиль формата : LCИдентификатор кодека : A_AACПродолжительность : 2 ч. 25 м.Битрейт : 128 Кбит/секКаналы : 2 каналаРасположение каналов : Front: L RЧастота : 48,0 КГцЧастота кадров : 46,875 кадров/сек (1024 spf)Метод сжатия : С потерямиРазмер потока : 133 Мбайт (3%)Язык : RussianDefault : ДаForced : Нет


Показать сообщения:    

Текущее время: 16-Дек 20:56

Часовой пояс: UTC ± 0


Вы не можете начинать темы
Вы не можете отвечать на сообщения
Вы не можете редактировать свои сообщения
Вы не можете удалять свои сообщения
Вы не можете голосовать в опросах
Вы не можете прикреплять файлы к сообщениям
Вы не можете скачивать файлы

!ВНИМАНИЕ!
Сайт не предоставляет электронные версии произведений, а занимается лишь коллекционированием и каталогизацией ссылок, присылаемых и публикуемых на форуме нашими читателями. Если вы являетесь правообладателем какого-либо представленного материала и не желаете, чтобы ссылка на него находилась в нашем каталоге, свяжитесь с нами, и мы незамедлительно удалим ее. Файлы для обмена на трекере предоставлены пользователями сайта, и администрация не несет ответственности за их содержание. Просьба не заливать файлы, защищенные авторскими правами, а также файлы нелегального содержания!