Важное объявление!
У Нас Все раздачи мультитрекерные, при нуле пиров в релизах, можете смело вставать на закачку!
Статистика раздачи
Размер:     |    Зарегистрирован:     |    Скачан:     |   
Нет
 
     
 
 
Автор Сообщение

HUNTER

Стаж:
5 лет 1 месяц
Сообщений:
68449

Репутация: 101

[+] [-]
Вне форума [Профиль] [ЛС]

Verizon IndyCar Series 2016 / Этап 16 / Gopro grand prix of Sonoma
[img=right]https://upload.wikimedia.org/wikipedia/ru/1/15/Veri...Series.png[/img]
Вид спорта: Автоспорт
Дата/Год выпуска: 18.09.2016
Язык комментариев: Русский (Владимир Башмаков)
Канал: Матч Арена HD

Описание:
Арена: Автодром Сонома (Сонома, США)
Автор рипа/записи: _Steep_
Качество: HDTV
Формат видео: TS
Видео: AVC/H.264, 1920x1080, 25 fps, ~7600 kb/s
Аудио: русский, MP2, 2 ch, 48000 Hz, 192 Kbps

Продолжительность

02:25:01

Скриншоты

Счёт/Итог

[img][/img]

MediaInfo

ОбщееИдентификатор : 1 (0x1)Полное имя : F:\ТВ\Verizon IndyCar\(2016.09.18)_VerizonIndyCar. Gopro grand prix of Sonoma_(Матч Арена HD)_HDTV_1080i_steep.tsФормат : MPEG-TSРазмер файла : 8,30 ГбайтПродолжительность : 2 ч. 25 м.Режим общего битрейта : ПеременныйОбщий поток : 8199 Кбит/сек
ВидеоИдентификатор : 324 (0x144)Идентификатор меню : 12104 (0x2F48)Формат : AVCФормат/Информация : Advanced Video CodecПрофиль формата : High@L4Параметр CABAC формата : ДаПараметр ReFrames формата : 4 кадраИдентификатор кодека : 27Продолжительность : 2 ч. 25 м.Битрейт : 7600 Кбит/секШирина : 1920 пикселейВысота : 1080 пикселейСоотношение сторон : 16:9Частота кадров : 25,000 кадров/секСтандарт вещания : ComponentЦветовое пространство : YUVСубдискретизация насыщенности : 4:2:0Битовая глубина : 8 битТип развёртки : ЧересстрочнаяМетод сохранения типа развёртки : Раздельные поляПорядок развёртки : Верхнее поле первоеБит/(Пиксели*Кадры) : 0.147Размер потока : 7,70 Гбайт (93%)Цветовой диапазон : LimitedОсновные цвета : BT.709Характеристики трансфера : BT.709Коэффициенты матрицы : BT.709
АудиоИдентификатор : 404 (0x194)Идентификатор меню : 12104 (0x2F48)Формат : MPEG AudioВерсия формата : Version 1Профиль формата : Layer 2Идентификатор кодека : 3Продолжительность : 2 ч. 25 м.Вид битрейта : ПостоянныйБитрейт : 192 Кбит/секКаналы : 2 каналаЧастота : 48,0 КГцМетод сжатия : С потерямиЗадержка видео : -120 мс.Размер потока : 199 Мбайт (2%)Язык : Russian

_________________
Показать сообщения:    

Текущее время: Сегодня 00:57

Часовой пояс: GMT



Вы не можете начинать темы
Вы не можете отвечать на сообщения
Вы не можете редактировать свои сообщения
Вы не можете удалять свои сообщения
Вы не можете голосовать в опросах
Вы не можете прикреплять файлы к сообщениям
Вы не можете скачивать файлы