Ивановский Торрент трекер
Яндекс.Погода
 

[Цитировать]
HUNTER

Verizon IndyCar Series 2016 / Этап 15 / Grand prix at the Glen. Watkins Glen International
Вид спорта: Автоспорт
Дата/Год выпуска: 05.09.2016
Язык комментариев: Русский (Владимир Башмаков)
Канал: Матч Арена HD

Описание:
04 сентября 2016 года, воскресенье. 21:35 МСК
Арена: Международный автодром Уоткинс-Глен (Уоткинс-Глен, США)
Автор рипа/записи: _Steep_
Качество: HDTV
Формат видео: TS
Видео: AVC/H.264, 1920x1080, 25 fps, ~8681 kb/s
Аудио: русский, MP2, 2 ch, 48000 Hz, 192 Kbps

Продолжительность

02:04:22

Скриншоты

Счёт/Итог

MediaInfo

ОбщееИдентификатор : 1 (0x1)Полное имя : F:\ТВ\Verizon IndyCar\(2016.09.04)_VerizonIndyCar. Grand prix at the Glen. Watkins Glen International_(Матч Арена HD)_HDTV_1080i_steep.tsФормат : MPEG-TSРазмер файла : 8,11 ГбайтПродолжительность : 2 ч. 4 м.Режим общего битрейта : ПеременныйОбщий поток : 9336 Кбит/сек
ВидеоИдентификатор : 324 (0x144)Идентификатор меню : 12104 (0x2F48)Формат : AVCФормат/Информация : Advanced Video CodecПрофиль формата : High@L4Параметр CABAC формата : ДаПараметр ReFrames формата : 4 кадраИдентификатор кодека : 27Продолжительность : 2 ч. 4 м.Битрейт : 8681 Кбит/секШирина : 1920 пикселейВысота : 1080 пикселейСоотношение сторон : 16:9Частота кадров : 25,000 кадров/секСтандарт вещания : ComponentЦветовое пространство : YUVСубдискретизация насыщенности : 4:2:0Битовая глубина : 8 битТип развёртки : ЧересстрочнаяМетод сохранения типа развёртки : Раздельные поляПорядок развёртки : Верхнее поле первоеБит/(Пиксели*Кадры) : 0.167Размер потока : 7,54 Гбайт (93%)Цветовой диапазон : LimitedОсновные цвета : BT.709Характеристики трансфера : BT.709Коэффициенты матрицы : BT.709
АудиоИдентификатор : 404 (0x194)Идентификатор меню : 12104 (0x2F48)Формат : MPEG AudioВерсия формата : Version 1Профиль формата : Layer 2Идентификатор кодека : 3Продолжительность : 2 ч. 4 м.Вид битрейта : ПостоянныйБитрейт : 192 Кбит/секКаналы : 2 каналаЧастота : 48,0 КГцМетод сжатия : С потерямиРазмер потока : 171 Мбайт (2%)Язык : Russian
Показать сообщения:    

Текущее время: 21-Окт 22:17

Часовой пояс: UTC - 1


Вы не можете начинать темы
Вы не можете отвечать на сообщения
Вы не можете редактировать свои сообщения
Вы не можете удалять свои сообщения
Вы не можете голосовать в опросах
Вы не можете прикреплять файлы к сообщениям
Вы не можете скачивать файлы

!ВНИМАНИЕ!
Сайт не предоставляет электронные версии произведений, а занимается лишь коллекционированием и каталогизацией ссылок, присылаемых и публикуемых на форуме нашими читателями. Если вы являетесь правообладателем какого-либо представленного материала и не желаете, чтобы ссылка на него находилась в нашем каталоге, свяжитесь с нами, и мы незамедлительно удалим ее. Файлы для обмена на трекере предоставлены пользователями сайта, и администрация не несет ответственности за их содержание. Просьба не заливать файлы, защищенные авторскими правами, а также файлы нелегального содержания!