Важное объявление!
У Нас Все раздачи мультитрекерные, при нуле пиров в релизах, можете смело вставать на закачку!
Статистика раздачи
Размер:     |    Зарегистрирован:     |    Скачан:     |   
Нет
 
     
 
 
Автор Сообщение

HUNTER

Стаж:
5 лет
Сообщений:
68415

Репутация: 101

[+] [-]
Вне форума [Профиль] [ЛС]

Verizon IndyCar Series 2016. Этап 15. Grand Prix at The Glen. Viasat Sport HD/Матч!Арена
Вид спорта: Автоспорт
Дата/Год выпуска: 04.09.2016
Язык комментариев: Русский (Сергея Беднарук), Русский (Владимир Башмаков (пустые промежутки у Арены комментирует Сергея Беднарук)) Английский
Описание: 15 этап гоночной серии IndyCar.
Автор рипа/записи: Ales
Качество: DVB-S2 Rip 720P
Формат видео: MKV
Видео: H264, 1280x720P, 50 кадр/c, 3 500 Kbps
Аудио:
1. MP2 2.0, 48.0 KHz, 192 kb/s Русский (Viasat Sport)
2. MP2 2.0, 48.0 KHz, 192 kb/s Русский (Матч!Арена)
3. MP2 2.0, 48.0 KHz, 192 kb/s Английский (NBCSN)

Продолжительность

2:58:47

Скриншоты

MediaInfo

GeneralUnique ID : 251062424364031953894356234353596597659 (0xBCE0DD359CD821968D9BBAB486C2859B)Complete name : Z:\01.SYS\FASTTORRENT\Автоспорт\Indycar\INDYCAR_2016_R15_GRAND_PRIX_AT_THE_GLEN_VIASAT_SPORT_HD_720P.mkvFormat : MatroskaFormat version : Version 4 / Version 2File size : 5.10 GiBDuration : 2h 58mnOverall bit rate mode : VariableOverall bit rate : 4 086 KbpsEncoded date : UTC 2016-09-05 00:20:09Writing application : mkvmerge v9.1.0 ('Little Earthquakes') 64bitWriting library : libebml v1.3.3 + libmatroska v1.4.4
VideoID : 1Format : AVCFormat/Info : Advanced Video CodecFormat profile : High@L3.2Format settings, CABAC : YesFormat settings, ReFrames : 2 framesFormat settings, GOP : M=3, N=12Codec ID : V_MPEG4/ISO/AVCDuration : 2h 58mnBit rate mode : VariableBit rate : 3 498 KbpsMaximum bit rate : 5 000 KbpsWidth : 1 280 pixelsHeight : 720 pixelsDisplay aspect ratio : 16:9Frame rate mode : ConstantFrame rate : 50.000 fpsColor space : YUVChroma subsampling : 4:2:0Bit depth : 8 bitsScan type : ProgressiveBits/(Pixel*Frame) : 0.076Stream size : 4.37 GiB (86%)Default : YesForced : No
Audio #1ID : 2Format : MPEG AudioFormat version : Version 1Format profile : Layer 2Codec ID : A_MPEG/L2Codec ID/Hint : MP2Duration : 2h 58mnBit rate mode : ConstantBit rate : 192 KbpsChannel(s) : 2 channelsSampling rate : 48.0 KHzFrame rate : 41.667 fps (1152 spf)Compression mode : LossyDelay relative to video : 41msStream size : 246 MiB (5%)Language : RussianDefault : YesForced : No
Audio #2ID : 3Format : MPEG AudioFormat version : Version 1Format profile : Layer 1Codec ID : A_MPEG/L1Codec ID/Hint : MP1Duration : 2h 58mnBit rate mode : ConstantBit rate : 192 KbpsChannel(s) : 2 channelsSampling rate : 48.0 KHzFrame rate : 125.000 fps (384 spf)Compression mode : LossyStream size : 246 MiB (5%)Language : RussianDefault : NoForced : No
Audio #3ID : 4Format : MPEG AudioFormat version : Version 1Format profile : Layer 2Codec ID : A_MPEG/L2Codec ID/Hint : MP2Duration : 2h 58mnBit rate mode : ConstantBit rate : 192 KbpsChannel(s) : 2 channelsSampling rate : 48.0 KHzFrame rate : 41.667 fps (1152 spf)Compression mode : LossyDelay relative to video : 41msStream size : 246 MiB (5%)Language : EnglishDefault : NoForced : No

_________________
Показать сообщения:    

Текущее время: Сегодня 03:15

Часовой пояс: GMT



Вы не можете начинать темы
Вы не можете отвечать на сообщения
Вы не можете редактировать свои сообщения
Вы не можете удалять свои сообщения
Вы не можете голосовать в опросах
Вы не можете прикреплять файлы к сообщениям
Вы не можете скачивать файлы