Важное объявление!
У Нас Все раздачи мультитрекерные, при нуле пиров в релизах, можете смело вставать на закачку!
 
Автор Сообщение

HUNTER

Стаж:
4 года 5 месяцев
Сообщений:
60866

Репутация: 101

[+] [-]
Вне форума [Профиль] [ЛС]

Verizon IndyCar Series 2016 / Этап 14 / Firestone 600. Texas Motor Speedway
[img=right]https://upload.wikimedia.org/wikipedia/ru/1/15/Veri...Series.png[/img]
Вид спорта: Автоспорт
Дата/Год выпуска: 27.08.2016
Язык комментариев: Русский (Владимир Башмаков)
Канал: Матч Арена HD

Описание:
27 августа 2016 года, суббота. 21:50 МСК
Файрстоун-600 (248 кругов)
Арена: Техас Мотор Спидвей (Форт-Уэрт, США)
Автор рипа/записи: _Steep_
Качество: HDTVRip
Формат видео: MKV
Видео: AVC/H.264, 1280x720, 50 fps, ~2668 kb/s
Аудио: русский, AC-3, 2 ch, 48000 Hz, 192 Kbps

Продолжительность

01:56:36

Скриншоты

Счёт/Итог

MediaInfo

ОбщееУникальный идентификатор : 223976273774656946679204930256210604159 (0xA88042E13F195C74BA2DFF9D5AA5B07F)Полное имя : F:\ТВ\Verizon IndyCar\(2016.08.27)_VerizonIndyCar. Firestone 600. Texas Motor Speedway_(Матч Арена HD)_HDTVRip_720p_steep.mkvФормат : MatroskaВерсия формата : Version 4 / Version 2Размер файла : 2,33 ГбайтПродолжительность : 1 ч. 56 м.Общий поток : 2863 Кбит/секДата кодирования : UTC 2016-08-29 02:42:45Программа кодирования : mkvmerge v9.4.0 ('Knurl') 64bitБиблиотека кодирования : libebml v1.3.4 + libmatroska v1.4.5
ВидеоИдентификатор : 1Формат : AVCФормат/Информация : Advanced Video CodecПрофиль формата : High@L3.2Параметр CABAC формата : ДаПараметр ReFrames формата : 4 кадраИдентификатор кодека : V_MPEG4/ISO/AVCПродолжительность : 1 ч. 56 м.Битрейт : 2668 Кбит/секШирина : 1280 пикселейВысота : 720 пикселейСоотношение сторон : 16:9Режим частоты кадров : ПеременныйЧастота кадров : 50,000 кадров/секЦветовое пространство : YUVСубдискретизация насыщенности : 4:2:0Битовая глубина : 8 битТип развёртки : ПрогрессивнаяБит/(Пиксели*Кадры) : 0.058Размер потока : 2,17 Гбайт (93%)Библиотека кодирования : x264 core 148 r2705M 3f5ed56Настройки программы : cabac=1 / ref=2 / deblock=1:-1:-1 / analyse=0x3:0x133 / me=umh / subme=9 / psy=1 / psy_rd=1.00:0.20 / mixed_ref=1 / me_range=24 / chroma_me=1 / trellis=1 / 8x8dct=1 / cqm=0 / deadzone=21,11 / fast_pskip=1 / chroma_qp_offset=-3 / threads=4 / lookahead_threads=1 / sliced_threads=0 / nr=0 / decimate=1 / interlaced=0 / bluray_compat=0 / constrained_intra=0 / bframes=6 / b_pyramid=2 / b_adapt=2 / b_bias=0 / direct=1 / weightb=1 / open_gop=0 / weightp=2 / keyint=250 / keyint_min=25 / scenecut=40 / intra_refresh=0 / rc_lookahead=40 / rc=crf / mbtree=1 / crf=24.0 / qcomp=0.60 / qpmin=0 / qpmax=69 / qpstep=4 / ip_ratio=1.40 / aq=1:1.00Default : ДаForced : НетЦветовой диапазон : LimitedОсновные цвета : BT.709Характеристики трансфера : BT.709Коэффициенты матрицы : BT.709
АудиоИдентификатор : 2Формат : AC-3Формат/Информация : Audio Coding 3Расширение режима : CM (complete main)Параметр Endianness формата : BigИдентификатор кодека : A_AC3Продолжительность : 1 ч. 56 м.Вид битрейта : ПостоянныйБитрейт : 192 Кбит/секКаналы : 2 каналаРасположение каналов : Front: L RЧастота : 48,0 КГцЧастота кадров : 31,250 кадров/сек (1536 spf)Метод сжатия : С потерямиРазмер потока : 160 Мбайт (7%)Язык : RussianDefault : ДаForced : Нет

_________________
Показать сообщения:    

Текущее время: Сегодня 18:50

Часовой пояс: GMT



Вы не можете начинать темы
Вы не можете отвечать на сообщения
Вы не можете редактировать свои сообщения
Вы не можете удалять свои сообщения
Вы не можете голосовать в опросах
Вы не можете прикреплять файлы к сообщениям
Вы не можете скачивать файлы
Наши партнеры: интернет магазин Ивановского трикотажа textilla.ru