Важное объявление!
У Нас Все раздачи мультитрекерные, при нуле пиров в релизах, можете смело вставать на закачку!
 
Автор Сообщение

HUNTER

Стаж:
4 года 8 месяцев
Сообщений:
62091

Репутация: 101

[+] [-]
Вне форума [Профиль] [ЛС]

Verizon IndyCar Series 2016. Этап 12. Honda Indy 200 at Mid-Ohio. Viasat Sport HD
Вид спорта: Автоспорт
Дата/Год выпуска: 31.07.2016
Язык комментариев: Русский (Сергей Бендарук), Английский
Описание: 12 этап гоночной серии IndyCar.
Автор рипа/записи: Ales
Качество: HDTV
Формат видео: MKV
Видео: H264, 1280x720p, 50 кадр/c, 3 498 Kbps
Аудио: MP2 2.0, 48.0 KHz, 192 kb/s

Продолжительность

2:43:56

Скриншоты

MediaInfo

GeneralUnique ID : 204192852488457959424333020883668843102 (0x999E1CE74260AD1EB75ED2B091DE3A5E)Complete name : K:\Indycar\INDYCAR_2016_R12_HONDA_INDY_200_MID_OHIO_VIASAT_SPORT_HD_720P.mkvFormat : MatroskaFormat version : Version 4 / Version 2File size : 4.29 GiBDuration : 2h 37mnOverall bit rate mode : VariableOverall bit rate : 3 886 KbpsEncoded date : UTC 2016-08-01 18:33:17Writing application : mkvmerge v9.1.0 ('Little Earthquakes') 64bitWriting library : libebml v1.3.3 + libmatroska v1.4.4
VideoID : 1Format : AVCFormat/Info : Advanced Video CodecFormat profile : High@L3.2Format settings, CABAC : YesFormat settings, ReFrames : 2 framesFormat settings, GOP : M=3, N=12Codec ID : V_MPEG4/ISO/AVCDuration : 2h 37mnBit rate mode : VariableBit rate : 3 498 KbpsMaximum bit rate : 5 000 KbpsWidth : 1 280 pixelsHeight : 720 pixelsDisplay aspect ratio : 16:9Frame rate mode : ConstantFrame rate : 50.000 fpsColor space : YUVChroma subsampling : 4:2:0Bit depth : 8 bitsScan type : ProgressiveBits/(Pixel*Frame) : 0.076Stream size : 3.86 GiB (90%)Default : YesForced : No
Audio #1ID : 2Format : MPEG AudioFormat version : Version 1Format profile : Layer 2Codec ID : A_MPEG/L2Codec ID/Hint : MP2Duration : 2h 37mnBit rate mode : ConstantBit rate : 192 KbpsChannel(s) : 2 channelsSampling rate : 48.0 KHzFrame rate : 41.652 fps (1152 spf)Compression mode : LossyDelay relative to video : 137msStream size : 217 MiB (5%)Language : RussianDefault : YesForced : No
Audio #2ID : 3Format : MPEG AudioFormat version : Version 1Format profile : Layer 2Codec ID : A_MPEG/L2Codec ID/Hint : MP2Duration : 2h 37mnBit rate mode : ConstantBit rate : 192 KbpsChannel(s) : 2 channelsSampling rate : 48.0 KHzFrame rate : 41.652 fps (1152 spf)Compression mode : LossyDelay relative to video : 137msStream size : 217 MiB (5%)Language : EnglishDefault : NoForced : No

_________________
Показать сообщения:    

Текущее время: Сегодня 13:33

Часовой пояс: GMT



Вы не можете начинать темы
Вы не можете отвечать на сообщения
Вы не можете редактировать свои сообщения
Вы не можете удалять свои сообщения
Вы не можете голосовать в опросах
Вы не можете прикреплять файлы к сообщениям
Вы не можете скачивать файлы
Наши партнеры: интернет магазин Ивановского трикотажа textilla.ru