Важное объявление!
У Нас Все раздачи мультитрекерные, при нуле пиров в релизах, можете смело вставать на закачку!
 
Автор Сообщение

HUNTER

Стаж:
4 года 4 месяца
Сообщений:
56829

Репутация: 101

[+] [-]
Вне форума [Профиль] [ЛС]

Verizon IndyCar Series 2015. Полный сезон. Viasat Sport HD
Вид спорта: Автоспорт
Формат видео: MKV
Indycar — это главный американский чемпионат автогонок с открытыми колёсами. С таким именем сезон 2015 года является 20 по счёту , а всего было проведено 104 американских чемпионатов на автомобилях с открытыми колёсами в Америке. Наиболее известное соревнование сезона - Индианаполис 500, пройдёт в этом сезоне 99 раз. Именно за него, а также финальную гонку сезона начислят двойные очки. Сезон 2015 года состоит из 16 этапов, которые проходят на различных видах трасс: овалах и дорожных автодромах. С этого сезона постановщики моторов: Honda и Chervolet, также предоставляют командам аэродинамические обвесы для болидов, да ещё в нескольких вариациях: для овальных трасс и для «роудкорсов» — автодромов европейского типа. Мотор имеет объём в 2,2 литра и, в зависимости от конфигурации для того или иного типа трассы, может выдавать до 700 л.с. мощности.

29.03 | Этап 01 | Firestone Grand Prix Of St. Petersburg | 720P | RU

Дата/Год выпуска: 29.03.2015
Язык комментариев: Русский (Сергей Беднарук)
Автор рипа/записи: VАDЕR
Качество: DVB-S2 Rip
Видео: H264, 1280x720P, 50 кадр/c, 5 500 Kbps
Аудио: AAC 2.0, 48.0 KHz, 192 kb/s
Продолжительность
3:01:12

Скриншоты

MediaInfo

GeneralUnique ID : 116305879462291668957281741087696934895 (0x577FB295AEB106140DAE3174E822D7EF)Complete name : Z:\01.SYS\FASTTORRENT\Автоспорт\Indycar\INDYCAR_2015_VIASAT_SPORT_HD\INDYCAR_2015_R01_FIRESTONE_GRAND_PRIX_OF_ST.PETERSBURG_720P_RU.MKVFormat : MatroskaFormat version : Version 2File size : 7.21 GiBDuration : 3h 1mnOverall bit rate : 5 698 KbpsWriting application : HandBrake 0.10.0 2014112200Writing library : Lavf55.12.0 / Lavf55.12.0
VideoID : 1Format : AVCFormat/Info : Advanced Video CodecFormat profile : High@L4.1Format settings, CABAC : YesFormat settings, ReFrames : 8 framesCodec ID : V_MPEG4/ISO/AVCDuration : 3h 1mnNominal bit rate : 5 500 KbpsWidth : 1 280 pixelsHeight : 720 pixelsDisplay aspect ratio : 16:9Frame rate mode : ConstantFrame rate : 50.000 fpsColor space : YUVChroma subsampling : 4:2:0Bit depth : 8 bitsScan type : ProgressiveBits/(Pixel*Frame) : 0.119Writing library : x264 core 142 r2479 dd79a61Encoding settings : cabac=1 / ref=9 / deblock=1:0:0 / analyse=0x3:0x133 / me=umh / subme=9 / psy=1 / psy_rd=1.10:0.50 / mixed_ref=1 / me_range=24 / chroma_me=1 / trellis=2 / 8x8dct=1 / cqm=0 / deadzone=21,11 / fast_pskip=1 / chroma_qp_offset=-4 / threads=6 / lookahead_threads=1 / sliced_threads=0 / nr=0 / decimate=1 / interlaced=0 / bluray_compat=0 / constrained_intra=0 / bframes=9 / b_pyramid=1 / b_adapt=2 / b_bias=0 / direct=3 / weightb=1 / open_gop=0 / weightp=2 / keyint=500 / keyint_min=50 / scenecut=40 / intra_refresh=0 / rc_lookahead=40 / rc=2pass / mbtree=1 / bitrate=5500 / ratetol=1.0 / qcomp=0.60 / qpmin=0 / qpmax=69 / qpstep=4 / cplxblur=20.0 / qblur=0.5 / vbv_maxrate=62500 / vbv_bufsize=78125 / nal_hrd=none / filler=0 / ip_ratio=1.40 / aq=1:2.00Default : YesForced : NoColor range : LimitedColor primaries : BT.601 NTSCTransfer characteristics : BT.709Matrix coefficients : BT.601
AudioID : 2Format : AACFormat/Info : Advanced Audio CodecFormat profile : LCCodec ID : A_AACDuration : 3h 1mnChannel(s) : 2 channelsChannel positions : Front: L RSampling rate : 48.0 KHzFrame rate : 46.875 fps (1024 spf)Compression mode : LossyDelay relative to video : -21msTitle : StereoLanguage : EnglishDefault : YesForced : No

12.04 | Этап 02 | Indy Grand Prix of Louisiana | 1080I | RU/EN

Дата/Год выпуска: 12.04.2015
Язык комментариев: Русский (Сергей Беднарук), Английский
Автор рипа/записи: SashaR
Качество: DVB-S2 Remux
Видео: H264, 1920x1080I, 25 кадр/c, 9 058 Kbps
Аудио: MP2 2.0, 48.0 KHz, 192 kb/s
Продолжительность
2:08:35

Скриншоты

MediaInfo

GeneralUnique ID : 254242699304450875024147089879877733533 (0xBF455CDEB4CEE5E1BDA2A798486ACC9D)Complete name : Z:\01.SYS\FASTTORRENT\Автоспорт\Indycar\INDYCAR_2015_VIASAT_SPORT_HD\INDYCAR_2015_R02_INDY_GRAND_PRIX_OF_LOUISIANA_1080I_RU_EN.MKVFormat : MatroskaFormat version : Version 4 / Version 2File size : 8.60 GiBDuration : 2h 10mnOverall bit rate : 9 446 KbpsEncoded date : UTC 2016-08-22 12:52:16Writing application : mkvmerge v8.9.0 ('Father Daughter') 64bitWriting library : libebml v1.3.3 + libmatroska v1.4.4
VideoID : 1Format : AVCFormat/Info : Advanced Video CodecFormat profile : High@L4Format settings, CABAC : YesFormat settings, ReFrames : 4 framesFormat settings, GOP : M=4, N=28Codec ID : V_MPEG4/ISO/AVCDuration : 2h 10mnBit rate : 9 058 KbpsWidth : 1 920 pixelsHeight : 1 080 pixelsDisplay aspect ratio : 16:9Frame rate mode : VariableFrame rate : 50.000 fpsOriginal frame rate : 25.000 fpsStandard : ComponentColor space : YUVChroma subsampling : 4:2:0Bit depth : 8 bitsScan type : InterlacedScan type, store method : Separated fieldsScan order : Bottom Field FirstBits/(Pixel*Frame) : 0.087Stream size : 8.25 GiB (96%)Language : EnglishDefault : YesForced : NoColor range : LimitedColor primaries : BT.709Transfer characteristics : BT.709Matrix coefficients : BT.709
Audio #1ID : 2Format : MPEG AudioFormat version : Version 1Format profile : Layer 2Codec ID : A_MPEG/L2Codec ID/Hint : MP2Duration : 2h 10mnBit rate mode : ConstantBit rate : 192 KbpsChannel(s) : 2 channelsSampling rate : 48.0 KHzFrame rate : 41.667 fps (1152 spf)Compression mode : LossyDelay relative to video : 53msStream size : 179 MiB (2%)Language : GermanDefault : YesForced : No
Audio #2ID : 3Format : MPEG AudioFormat version : Version 1Format profile : Layer 2Codec ID : A_MPEG/L2Codec ID/Hint : MP2Duration : 2h 10mnBit rate mode : ConstantBit rate : 192 KbpsChannel(s) : 2 channelsSampling rate : 48.0 KHzFrame rate : 41.667 fps (1152 spf)Compression mode : LossyDelay relative to video : 53msStream size : 179 MiB (2%)Language : GermanDefault : NoForced : No

19.04 | Этап 03 | Toyota Grand Prix of Long Beach | 1080I | RU/EN

Дата/Год выпуска: 19.04.2015
Язык комментариев: Русский (Сергей Беднарук), Английский
Автор рипа/записи: SashaR
Качество: DVB-S2 Remux
Видео: H264, 1920x1080I, 25 кадр/c, 9 454 Kbps
Аудио: MP2 2.0, 48.0 KHz, 192 kb/s
Продолжительность
2:21:59

Скриншоты

MediaInfo

GeneralUnique ID : 177390870995913016296994267513980689605 (0x85743D3126027072A95FF2B71D279CC5)Complete name : Z:\01.SYS\FASTTORRENT\Автоспорт\Indycar\INDYCAR_2015_VIASAT_SPORT_HD\INDYCAR_2015_R03_TOYOTA_GRAND_PRIX_OF_LONG_BEACH_1080I_RU_EN.MKVFormat : MatroskaFormat version : Version 4 / Version 2File size : 11.1 GiBDuration : 2h 41mnOverall bit rate : 9 842 KbpsEncoded date : UTC 2016-08-23 10:02:46Writing application : mkvmerge v9.4.0 ('Knurl') 64bitWriting library : libebml v1.3.4 + libmatroska v1.4.5
VideoID : 1Format : AVCFormat/Info : Advanced Video CodecFormat profile : High@L4Format settings, CABAC : YesFormat settings, ReFrames : 4 framesCodec ID : V_MPEG4/ISO/AVCDuration : 2h 41mnBit rate : 9 454 KbpsWidth : 1 920 pixelsHeight : 1 080 pixelsDisplay aspect ratio : 16:9Frame rate mode : VariableFrame rate : 50.000 fpsOriginal frame rate : 25.000 fpsStandard : ComponentColor space : YUVChroma subsampling : 4:2:0Bit depth : 8 bitsScan type : InterlacedScan type, store method : Separated fieldsScan order : Top Field FirstBits/(Pixel*Frame) : 0.091Stream size : 10.7 GiB (96%)Default : YesForced : NoColor range : LimitedColor primaries : BT.709Transfer characteristics : BT.709Matrix coefficients : BT.709
Audio #1ID : 2Format : MPEG AudioFormat version : Version 1Format profile : Layer 2Codec ID : A_MPEG/L2Codec ID/Hint : MP2Duration : 2h 41mnBit rate mode : ConstantBit rate : 192 KbpsChannel(s) : 2 channelsSampling rate : 48.0 KHzFrame rate : 41.667 fps (1152 spf)Compression mode : LossyDelay relative to video : 221msStream size : 222 MiB (2%)Language : RussianDefault : YesForced : No
Audio #2ID : 3Format : MPEG AudioFormat version : Version 1Format profile : Layer 2Codec ID : A_MPEG/L2Codec ID/Hint : MP2Duration : 2h 41mnBit rate mode : ConstantBit rate : 192 KbpsChannel(s) : 2 channelsSampling rate : 48.0 KHzFrame rate : 41.667 fps (1152 spf)Compression mode : LossyDelay relative to video : 221msStream size : 222 MiB (2%)Language : EnglishDefault : NoForced : No

26.04 | Этап 04 | Honda Indy Grand Prix of Alabama | 1080I | RU

Дата/Год выпуска: 26.04.2015
Язык комментариев: Русский (Сергей Беднарук)
Автор рипа/записи: SashaR
Качество: DVB-S2 Remux
Видео: H264, 1920x1080I, 25 кадр/c, 8 660 Kbps
Аудио: MP2 2.0, 48.0 KHz, 192 kb/s
Продолжительность
2:03:21

Скриншоты

MediaInfo

GeneralUnique ID : 232822531651844822294880542489342989988 (0xAF27FD11320FACA3A4CBCC35258556A4)Complete name : Z:\06.NASOTHER_002\Indycar\INDYCAR_2015_R04_HONDA_INDY_GRAND_PRIX_OF_ALABAMA_1080I_RU.MKVFormat : MatroskaFormat version : Version 4 / Version 2File size : 7.63 GiBDuration : 2h 3mnOverall bit rate : 8 855 KbpsEncoded date : UTC 2016-08-23 10:27:58Writing application : mkvmerge v9.4.0 ('Knurl') 64bitWriting library : libebml v1.3.4 + libmatroska v1.4.5
VideoID : 1Format : AVCFormat/Info : Advanced Video CodecFormat profile : Main@L4Format settings, CABAC : YesFormat settings, ReFrames : 4 framesCodec ID : V_MPEG4/ISO/AVCDuration : 2h 3mnBit rate : 8 660 KbpsWidth : 1 920 pixelsHeight : 1 080 pixelsDisplay aspect ratio : 16:9Frame rate mode : VariableFrame rate : 50.000 fpsOriginal frame rate : 25.000 fpsStandard : ComponentColor space : YUVChroma subsampling : 4:2:0Bit depth : 8 bitsScan type : InterlacedScan type, store method : Separated fieldsScan order : Bottom Field FirstBits/(Pixel*Frame) : 0.084Stream size : 7.46 GiB (98%)Default : YesForced : NoColor range : LimitedColor primaries : BT.709Transfer characteristics : BT.709Matrix coefficients : BT.709
AudioID : 2Format : MPEG AudioFormat version : Version 1Format profile : Layer 2Codec ID : A_MPEG/L2Codec ID/Hint : MP2Duration : 2h 3mnBit rate mode : ConstantBit rate : 192 KbpsChannel(s) : 2 channelsSampling rate : 48.0 KHzFrame rate : 41.642 fps (1153 spf)Compression mode : LossyDelay relative to video : 136msStream size : 169 MiB (2%)Language : RussianDefault : YesForced : No

09.05 | Этап 05 | Angie's List Grand Prix of Indianapolis | 1080I | RU

Дата/Год выпуска: 09.05.2015
Язык комментариев: Русский (Сергей Беднарук)
Автор рипа/записи: SashaR
Качество: DVB-S2 Remux
Видео: H264, 1920x1080I, 25 кадр/c, 8 903 Kbps
Аудио: MP2 2.0, 48.0 KHz, 192 kb/s
Продолжительность
2:14:38

Скриншоты

MediaInfo

GeneralUnique ID : 213193995022709391199662116857113431902 (0xA063AB7E6BB7E33189B9024FBE274F5E)Complete name : Z:\06.NASOTHER_002\Indycar\INDYCAR_2015_R05_ANGIE'S_LIST_GRAND_PRIX_OF_INDIANAPOLIS_1080I_RU.MKVFormat : MatroskaFormat version : Version 4 / Version 2File size : 9.13 GiBDuration : 2h 26mnOverall bit rate : 8 903 KbpsEncoded date : UTC 2016-08-23 10:35:13Writing application : mkvmerge v9.4.0 ('Knurl') 64bitWriting library : libebml v1.3.4 + libmatroska v1.4.5
VideoID : 1Format : AVCFormat/Info : Advanced Video CodecFormat profile : Main@L4Format settings, CABAC : YesFormat settings, ReFrames : 4 framesCodec ID : V_MPEG4/ISO/AVCDuration : 2h 26mnBit rate : 8 707 KbpsWidth : 1 920 pixelsHeight : 1 080 pixelsDisplay aspect ratio : 16:9Frame rate mode : VariableFrame rate : 50.000 fpsOriginal frame rate : 25.000 fpsStandard : ComponentColor space : YUVChroma subsampling : 4:2:0Bit depth : 8 bitsScan type : InterlacedScan type, store method : Separated fieldsScan order : Bottom Field FirstBits/(Pixel*Frame) : 0.084Stream size : 8.93 GiB (98%)Default : YesForced : NoColor range : LimitedColor primaries : BT.709Transfer characteristics : BT.709Matrix coefficients : BT.709
AudioID : 2Format : MPEG AudioFormat version : Version 1Format profile : Layer 2Codec ID : A_MPEG/L2Codec ID/Hint : MP2Duration : 2h 26mnBit rate mode : ConstantBit rate : 192 KbpsChannel(s) : 2 channelsSampling rate : 48.0 KHzFrame rate : 41.667 fps (1152 spf)Compression mode : LossyDelay relative to video : 200msStream size : 202 MiB (2%)Language : RussianDefault : YesForced : No

14.05 | Этап 06 | Indianapolis 500. 2 день практики | 1080I | RU

Дата/Год выпуска: 14.05.2015
Язык комментариев: Русский (Сергей Беднарук)
Автор рипа/записи: SashaR
Качество: DVB-S2 Remux
Видео: H264, 1920x1080I, 25 кадр/c, 8 684 Kbps
Аудио: MP2 2.0, 48.0 KHz, 192 kb/s
Продолжительность
2:10:24

Скриншоты

MediaInfo

GeneralUnique ID : 236251831503953055181814273141240158143 (0xB1BC729A90B691D595E26CDFB4D6D7BF)Complete name : Z:\06.NASOTHER_002\Indycar\INDYCAR_2015_R06_INDIANAPOLIS_500_DAY2_1080I_RU.MKVFormat : MatroskaFormat version : Version 4 / Version 2File size : 8.09 GiBDuration : 2h 10mnOverall bit rate : 8 880 KbpsEncoded date : UTC 2016-08-23 14:37:08Writing application : mkvmerge v9.4.0 ('Knurl') 64bitWriting library : libebml v1.3.4 + libmatroska v1.4.5
VideoID : 1Format : AVCFormat/Info : Advanced Video CodecFormat profile : Main@L4Format settings, CABAC : YesFormat settings, ReFrames : 4 framesCodec ID : V_MPEG4/ISO/AVCDuration : 2h 10mnBit rate : 8 684 KbpsWidth : 1 920 pixelsHeight : 1 080 pixelsDisplay aspect ratio : 16:9Frame rate mode : VariableFrame rate : 49.912 fpsOriginal frame rate : 25.000 fpsStandard : ComponentColor space : YUVChroma subsampling : 4:2:0Bit depth : 8 bitsScan type : InterlacedScan type, store method : Separated fieldsScan order : Bottom Field FirstBits/(Pixel*Frame) : 0.084Stream size : 7.91 GiB (98%)Default : YesForced : NoColor range : LimitedColor primaries : BT.709Transfer characteristics : BT.709Matrix coefficients : BT.709
AudioID : 2Format : MPEG AudioFormat version : Version 1Format profile : Layer 2Codec ID : A_MPEG/L2Codec ID/Hint : MP2Duration : 2h 10mnBit rate mode : ConstantBit rate : 192 KbpsChannel(s) : 2 channelsSampling rate : 48.0 KHzFrame rate : 41.591 fps (1154 spf)Compression mode : LossyDelay relative to video : 168msStream size : 179 MiB (2%)Language : RussianDefault : Yes

17.05 | Этап 06 | Indianapolis 500. Квалификация | 1080I | RU/EN

Дата/Год выпуска: 17.05.2015
Язык комментариев: Русский (Сергей Беднарук), Английский
Автор рипа/записи: SashaR
Качество: DVB-S2 Remux
Видео: H264, 1920x1080I, 25 кадр/c, 8 318 Kbps
Аудио: MP2 2.0, 48.0 KHz, 192 kb/s
Продолжительность
2:36:54

Скриншоты


MediaInfo

GeneralUnique ID : 193893809254802002012690674865669557148 (0x91DE96DE2AFB06C69870442FEF764B9C)Complete name : Z:\01.SYS\DISKSTATIC\06.NASOTHER_002\Indycar\INDYCAR_2015_R06_INDIANAPOLIS_500_QUALIFYING_1080I_RU_EN.MKVFormat : MatroskaFormat version : Version 4 / Version 2File size : 9.54 GiBDuration : 2h 36mnOverall bit rate : 8 703 KbpsEncoded date : UTC 2016-08-23 14:45:05Writing application : mkvmerge v9.4.0 ('Knurl') 64bitWriting library : libebml v1.3.4 + libmatroska v1.4.5
VideoID : 1Format : AVCFormat/Info : Advanced Video CodecFormat profile : Main@L4Format settings, CABAC : YesFormat settings, ReFrames : 4 framesFormat settings, GOP : M=4, N=28Codec ID : V_MPEG4/ISO/AVCDuration : 2h 36mnBit rate : 8 318 KbpsWidth : 1 920 pixelsHeight : 1 080 pixelsDisplay aspect ratio : 16:9Frame rate mode : VariableFrame rate : 49.571 fpsOriginal frame rate : 25.000 fpsStandard : ComponentColor space : YUVChroma subsampling : 4:2:0Bit depth : 8 bitsScan type : InterlacedScan type, store method : Separated fieldsScan order : Top Field FirstBits/(Pixel*Frame) : 0.081Stream size : 9.11 GiB (96%)Default : YesForced : NoColor range : LimitedColor primaries : BT.709Transfer characteristics : BT.709Matrix coefficients : BT.709
Audio #1ID : 2Format : MPEG AudioFormat version : Version 1Format profile : Layer 2Codec ID : A_MPEG/L2Codec ID/Hint : MP2Duration : 2h 36mnBit rate mode : ConstantBit rate : 192 KbpsChannel(s) : 2 channelsSampling rate : 48.0 KHzFrame rate : 41.309 fps (1162 spf)Compression mode : LossyDelay relative to video : 56msStream size : 214 MiB (2%)Language : RussianDefault : YesForced : No
Audio #2ID : 3Format : MPEG AudioFormat version : Version 1Format profile : Layer 2Codec ID : A_MPEG/L2Codec ID/Hint : MP2Duration : 2h 36mnBit rate mode : ConstantBit rate : 192 KbpsChannel(s) : 2 channelsSampling rate : 48.0 KHzFrame rate : 41.309 fps (1162 spf)

24.05 | Этап 06 | Indianapolis 500 | 1080I | RU

Дата/Год выпуска: 24.05.2015
Язык комментариев: Русский (Сергей Беднарук), Английский
Автор рипа/записи: SashaR
Качество: DVB-S2 Remux
Видео: H264, 1920x1080I, 25 кадр/c, 8 762 Kbps
Аудио: MP2 2.0, 48.0 KHz, 192 kb/s
Продолжительность
4:14:27

Скриншоты

MediaInfo

GeneralUnique ID : 189476338641102178721202791939096803028 (0x8E8BD0C04B4BCEBBA9206DA07F1176D4)Complete name : Z:\01.SYS\DISKSTATIC\06.NASOTHER_002\Indycar\INDYCAR_2015_R06_INDIANAPOLIS_500_RACE_1080I_RU_EN.MKVFormat : MatroskaFormat version : Version 4 / Version 2File size : 15.9 GiBDuration : 4h 14mnOverall bit rate : 8 958 KbpsEncoded date : UTC 2016-08-23 15:01:55Writing application : mkvmerge v9.4.0 ('Knurl') 64bitWriting library : libebml v1.3.4 + libmatroska v1.4.5
VideoID : 1Format : AVCFormat/Info : Advanced Video CodecFormat profile : Main@L4Format settings, CABAC : YesFormat settings, ReFrames : 4 framesCodec ID : V_MPEG4/ISO/AVCDuration : 4h 14mnBit rate : 8 762 KbpsWidth : 1 920 pixelsHeight : 1 080 pixelsDisplay aspect ratio : 16:9Frame rate mode : VariableFrame rate : 50.000 fpsOriginal frame rate : 25.000 fpsStandard : ComponentColor space : YUVChroma subsampling : 4:2:0Bit depth : 8 bitsScan type : InterlacedScan type, store method : Separated fieldsScan order : Top Field FirstBits/(Pixel*Frame) : 0.085Stream size : 15.6 GiB (98%)Default : YesForced : NoColor range : LimitedColor primaries : BT.709Transfer characteristics : BT.709Matrix coefficients : BT.709
AudioID : 2Format : MPEG AudioFormat version : Version 1Format profile : Layer 2Codec ID : A_MPEG/L2Codec ID/Hint : MP2Duration : 4h 14mnBit rate mode : ConstantBit rate : 192 KbpsChannel(s) : 2 channelsSampling rate : 48.0 KHzFrame rate : 41.664 fps (1152 spf)Compression mode : LossyDelay relative to video : 140msStream size : 349 MiB (2%)Language : RussianDefault : YesForced : No

30.05 | Этап 07 | Chevrolet Dual in Detroit Race 1 | 1080I | RU/EN

Дата/Год выпуска: 30.05.2015
Язык комментариев: Русский (Сергей Беднарук), Английский
Автор рипа/записи: mex_mangust
Качество: DVB-S2 Remux
Видео: H264, 1920x1080I, 25 кадр/c, 8 740 Kbps
Аудио: MP2 2.0, 48.0 KHz, 192 kb/s
Продолжительность
1:36:30

Скриншоты

MediaInfo

GeneralUnique ID : 255209838560960382219777247436791325004 (0xBFFFA0844BCE830B9D81809E21D3A14C)Complete name : Z:\01.SYS\DISKSTATIC\06.NASOTHER_002\Indycar\INDYCAR_2015_R07_CHEVROLET_DUAL_IN_DETROIT_RACE1_1080I_RU_EN.MKVFormat : MatroskaFormat version : Version 4 / Version 2File size : 6.15 GiBDuration : 1h 36mnOverall bit rate : 9 126 KbpsEncoded date : UTC 2015-05-30 21:34:59Writing application : mkvmerge v7.9.0 ('Birds') 64bitWriting library : libebml v1.3.1 + libmatroska v1.4.2
VideoID : 1Format : AVCFormat/Info : Advanced Video CodecFormat profile : Main@L4Format settings, CABAC : YesFormat settings, ReFrames : 4 framesCodec ID : V_MPEG4/ISO/AVCDuration : 1h 36mnBit rate : 8 740 KbpsWidth : 1 920 pixelsHeight : 1 080 pixelsDisplay aspect ratio : 16:9Frame rate mode : VariableFrame rate : 50.000 fpsOriginal frame rate : 25.000 fpsStandard : ComponentColor space : YUVChroma subsampling : 4:2:0Bit depth : 8 bitsScan type : InterlacedScan type, store method : Separated fieldsScan order : Top Field FirstBits/(Pixel*Frame) : 0.084Stream size : 5.89 GiB (96%)Title : mmDefault : YesForced : NoColor range : LimitedColor primaries : BT.709Transfer characteristics : BT.709Matrix coefficients : BT.709
Audio #1ID : 2Format : MPEG AudioFormat version : Version 1Format profile : Layer 2Codec ID : A_MPEG/L2Codec ID/Hint : MP2Duration : 1h 36mnBit rate mode : ConstantBit rate : 192 KbpsChannel(s) : 2 channelsSampling rate : 48.0 KHzFrame rate : 41.665 fps (1152 spf)Compression mode : LossyDelay relative to video : -1s 376msStream size : 133 MiB (2%)Title : Viasat SportLanguage : RussianDefault : YesForced : No
Audio #2ID : 3Format : MPEG AudioFormat version : Version 1Format profile : Layer 2Codec ID : A_MPEG/L2Codec ID/Hint : MP2Duration : 1h 36mnBit rate mode : ConstantBit rate : 192 KbpsChannel(s) : 2 channelsSampling rate : 48.0 KHzFrame rate : 41.665 fps (1152 spf)Compression mode : LossyDelay relative to video : -1s 280msStream size : 133 MiB (2%)Title : ABCLanguage : EnglishDefault : NoForced : No

31.05 | Этап 08 | Chevrolet Dual in Detroit Race 2 | 1080I | RU/EN

Дата/Год выпуска: 31.05.2015
Язык комментариев: Русский (Сергей Беднарук), Английский
Автор рипа/записи: mex_mangust
Качество: DVB-S2 Remux
Видео: H264, 1920x1080I, 25 кадр/c, 8 676 Kbps
Аудио: MP2 2.0, 48.0 KHz, 192 kb/s
Продолжительность
2:34:25

Скриншоты

MediaInfo

GeneralUnique ID : 222364063228195417664185067002239231909 (0xA749C2C34F1EDCB2A86FACBD111DA7A5)Complete name : Z:\01.SYS\DISKSTATIC\06.NASOTHER_002\Indycar\INDYCAR_2015_R08_CHEVROLET_DUAL_IN_DETROIT_RACE2_1080I_RU_EN.MKVFormat : MatroskaFormat version : Version 4 / Version 2File size : 9.78 GiBDuration : 2h 34mnOverall bit rate : 9 063 KbpsEncoded date : UTC 2015-05-31 22:06:48Writing application : mkvmerge v7.9.0 ('Birds') 64bitWriting library : libebml v1.3.1 + libmatroska v1.4.2
VideoID : 1Format : AVCFormat/Info : Advanced Video CodecFormat profile : Main@L4Format settings, CABAC : YesFormat settings, ReFrames : 4 framesFormat settings, GOP : M=4, N=28Codec ID : V_MPEG4/ISO/AVCDuration : 2h 34mnBit rate : 8 676 KbpsWidth : 1 920 pixelsHeight : 1 080 pixelsDisplay aspect ratio : 16:9Frame rate mode : VariableFrame rate : 50.000 fpsOriginal frame rate : 25.000 fpsStandard : ComponentColor space : YUVChroma subsampling : 4:2:0Bit depth : 8 bitsScan type : InterlacedScan type, store method : Separated fieldsScan order : Top Field FirstBits/(Pixel*Frame) : 0.084Stream size : 9.36 GiB (96%)Title : mmDefault : YesForced : NoColor range : LimitedColor primaries : BT.709Transfer characteristics : BT.709Matrix coefficients : BT.709
Audio #1ID : 2Format : MPEG AudioFormat version : Version 1Format profile : Layer 2Codec ID : A_MPEG/L2Codec ID/Hint : MP2Duration : 2h 34mnBit rate mode : ConstantBit rate : 192 KbpsChannel(s) : 2 channelsSampling rate : 48.0 KHzFrame rate : 41.662 fps (1152 spf)Compression mode : LossyDelay relative to video : 128msStream size : 212 MiB (2%)Title : Viasat SportLanguage : RussianDefault : YesForced : No
Audio #2ID : 3Format : MPEG AudioFormat version : Version 1Format profile : Layer 2Codec ID : A_MPEG/L2Codec ID/Hint : MP2Duration : 2h 34mnBit rate mode : ConstantBit rate : 192 KbpsChannel(s) : 2 channelsSampling rate : 48.0 KHzFrame rate : 41.662 fps (1152 spf)Compression mode : LossyDelay relative to video : 128msStream size : 212 MiB (2%)Title : ABCLanguage : EnglishDefault : NoForced : No

06.06 | Этап 09 | Firestone 600 | 1080I | RU/EN

Дата/Год выпуска: 06.06.2015
Язык комментариев: Русский (Сергей Беднарук), Английский
Автор рипа/записи: mex_mangust
Качество: DVB-S2 Remux
Видео: H264, 1920x1080I, 25 кадр/c, 8 479 Kbps
Аудио: MP2 2.0, 48.0 KHz, 192 kb/s
Продолжительность
2:25:53

Скриншоты

MediaInfo

GeneralUnique ID : 177822707390251728521074464033883770528 (0x85C7685EBB4A39DDB9592ED6BCB34EA0)Complete name : Z:\01.SYS\DISKSTATIC\06.NASOTHER_002\Indycar\INDYCAR_2015_R09_FIRESTONE_600_1080I_RU_EN.MKVFormat : MatroskaFormat version : Version 4 / Version 2File size : 9.04 GiBDuration : 2h 25mnOverall bit rate : 8 866 KbpsEncoded date : UTC 2015-06-08 14:21:26Writing application : mkvmerge v7.9.0 ('Birds') 64bitWriting library : libebml v1.3.1 + libmatroska v1.4.2
VideoID : 1Format : AVCFormat/Info : Advanced Video CodecFormat profile : Main@L4Format settings, CABAC : YesFormat settings, ReFrames : 4 framesFormat settings, GOP : M=4, N=28Codec ID : V_MPEG4/ISO/AVCDuration : 2h 25mnBit rate : 8 479 KbpsWidth : 1 920 pixelsHeight : 1 080 pixelsDisplay aspect ratio : 16:9Frame rate mode : VariableFrame rate : 50.000 fpsOriginal frame rate : 25.000 fpsStandard : ComponentColor space : YUVChroma subsampling : 4:2:0Bit depth : 8 bitsScan type : InterlacedScan type, store method : Separated fieldsScan order : Top Field FirstBits/(Pixel*Frame) : 0.082Stream size : 8.64 GiB (96%)Title : mmDefault : YesForced : NoColor range : LimitedColor primaries : BT.709Transfer characteristics : BT.709Matrix coefficients : BT.709
Audio #1ID : 2Format : MPEG AudioFormat version : Version 1Format profile : Layer 2Codec ID : A_MPEG/L2Codec ID/Hint : MP2Duration : 2h 25mnBit rate mode : ConstantBit rate : 192 KbpsChannel(s) : 2 channelsSampling rate : 48.0 KHzFrame rate : 41.640 fps (1153 spf)Compression mode : LossyDelay relative to video : 128msStream size : 200 MiB (2%)Title : Viasat SportLanguage : RussianDefault : YesForced : No
Audio #2ID : 3Format : MPEG AudioFormat version : Version 1Format profile : Layer 2Codec ID : A_MPEG/L2Codec ID/Hint : MP2Duration : 2h 25mnBit rate mode : ConstantBit rate : 192 KbpsChannel(s) : 2 channelsSampling rate : 48.0 KHzFrame rate : 41.640 fps (1153 spf)Compression mode : LossyDelay relative to video : 128msStream size : 200 MiB (2%)Title : NBC SNLanguage : EnglishDefault : NoForced : No

14.06 | Этап 10 | Honda Indy Toronto | 1080I | RU/EN

Дата/Год выпуска: 14.06.2015
Язык комментариев: Русский (Сергей Беднарук), Английский
Автор рипа/записи: mex_mangust
Качество: DVB-S2 Remux
Видео: H264, 1920x1080I, 25 кадр/c, 8 705 Kbps
Аудио: MP2 2.0, 48.0 KHz, 192 kb/s
Продолжительность
1:59:49

Скриншоты

MediaInfo

GeneralUnique ID : 219041630901901663187283788186354417179 (0xA4C9E233BFF136ABA87B75009A877E1B)Complete name : Z:\01.SYS\DISKSTATIC\06.NASOTHER_002\Indycar\INDYCAR_2015_R10_HONDA_INDY_TORONTO_1080I_RU_EN.MKVFormat : MatroskaFormat version : Version 4 / Version 2File size : 7.61 GiBDuration : 1h 59mnOverall bit rate : 9 093 KbpsEncoded date : UTC 2015-06-14 21:03:33Writing application : mkvmerge v7.9.0 ('Birds') 64bitWriting library : libebml v1.3.1 + libmatroska v1.4.2
VideoID : 1Format : AVCFormat/Info : Advanced Video CodecFormat profile : Main@L4Format settings, CABAC : YesFormat settings, ReFrames : 4 framesFormat settings, GOP : M=4, N=28Codec ID : V_MPEG4/ISO/AVCDuration : 1h 59mnBit rate : 8 705 KbpsWidth : 1 920 pixelsHeight : 1 080 pixelsDisplay aspect ratio : 16:9Frame rate mode : VariableFrame rate : 50.000 fpsOriginal frame rate : 25.000 fpsStandard : ComponentColor space : YUVChroma subsampling : 4:2:0Bit depth : 8 bitsScan type : InterlacedScan type, store method : Separated fieldsScan order : Top Field FirstBits/(Pixel*Frame) : 0.084Stream size : 7.29 GiB (96%)Title : mmDefault : YesForced : NoColor range : LimitedColor primaries : BT.709Transfer characteristics : BT.709Matrix coefficients : BT.709
Audio #1ID : 2Format : MPEG AudioFormat version : Version 1Format profile : Layer 2Codec ID : A_MPEG/L2Codec ID/Hint : MP2Duration : 1h 59mnBit rate mode : ConstantBit rate : 192 KbpsChannel(s) : 2 channelsSampling rate : 48.0 KHzFrame rate : 41.667 fps (1152 spf)Compression mode : LossyDelay relative to video : 136msStream size : 165 MiB (2%)Title : Viasat SportLanguage : RussianDefault : YesForced : No
Audio #2ID : 3Format : MPEG AudioFormat version : Version 1Format profile : Layer 2Codec ID : A_MPEG/L2Codec ID/Hint : MP2Duration : 1h 59mnBit rate mode : ConstantBit rate : 192 KbpsChannel(s) : 2 channelsSampling rate : 48.0 KHzFrame rate : 41.667 fps (1152 spf)Compression mode : LossyDelay relative to video : 136msStream size : 165 MiB (2%)Title : NBC SNLanguage : EnglishDefault : NoForced : No

27.06 | Этап 11 | MAVTV 500 | 1080I | RU/EN

Дата/Год выпуска: 27.06.2015
Язык комментариев: Русский (Сергей Беднарук), Английский
Автор рипа/записи: mex_mangust
Качество: DVB-S2 Remux
Видео: H264, 1920x1080I, 25 кадр/c, 8 629 Kbps
Аудио: MP2 2.0, 48.0 KHz, 192 kb/s
Продолжительность
3:58:57

Скриншоты

MediaInfo

GeneralUnique ID : 172606230123332068082239748756218175462 (0x81DAC02F11EEAD7BB5D1F2A5BE41DFE6)Complete name : Z:\01.SYS\DISKSTATIC\06.NASOTHER_002\Indycar\INDYCAR_2015_R11_MAVTV_500_1080I_RU_EN.MKVFormat : MatroskaFormat version : Version 4 / Version 2File size : 15.1 GiBDuration : 3h 58mnOverall bit rate : 9 017 KbpsEncoded date : UTC 2015-06-28 07:29:00Writing application : mkvmerge v8.0.0 ('Til The Day That I Die') 32bitWriting library : libebml v1.3.1 + libmatroska v1.4.2
VideoID : 1Format : AVCFormat/Info : Advanced Video CodecFormat profile : Main@L4Format settings, CABAC : YesFormat settings, ReFrames : 4 framesCodec ID : V_MPEG4/ISO/AVCDuration : 3h 58mnBit rate : 8 629 KbpsWidth : 1 920 pixelsHeight : 1 080 pixelsDisplay aspect ratio : 16:9Frame rate mode : VariableFrame rate : 50.000 fpsOriginal frame rate : 25.000 fpsStandard : ComponentColor space : YUVChroma subsampling : 4:2:0Bit depth : 8 bitsScan type : InterlacedScan type, store method : Separated fieldsScan order : Top Field FirstBits/(Pixel*Frame) : 0.083Stream size : 14.4 GiB (96%)Title : mexDefault : YesForced : NoColor range : LimitedColor primaries : BT.709Transfer characteristics : BT.709Matrix coefficients : BT.709
Audio #1ID : 2Format : MPEG AudioFormat version : Version 1Format profile : Layer 2Codec ID : A_MPEG/L2Codec ID/Hint : MP2Duration : 3h 58mnBit rate mode : ConstantBit rate : 192 KbpsChannel(s) : 2 channelsSampling rate : 48.0 KHzFrame rate : 41.665 fps (1152 spf)Compression mode : LossyDelay relative to video : 128msStream size : 328 MiB (2%)Title : Viasat SportLanguage : RussianDefault : YesForced : No
Audio #2ID : 3Format : MPEG AudioFormat version : Version 1Format profile : Layer 2Codec ID : A_MPEG/L2Codec ID/Hint : MP2Duration : 3h 58mnBit rate mode : ConstantBit rate : 192 KbpsChannel(s) : 2 channelsSampling rate : 48.0 KHzFrame rate : 41.665 fps (1152 spf)Compression mode : LossyDelay relative to video : 128msStream size : 328 MiB (2%)Title : NBC SNLanguage : EnglishDefault : NoForced : No

12.07 | Этап 12 | ABC Supply Wisconsin 250 | 1080I | RU/EN

Дата/Год выпуска: 12.07.2015
Язык комментариев: Русский (Дмитрий Донской), Английский
Автор рипа/записи: mex_mangust
Качество: DVB-S2 Remux
Видео: H264, 1920x1080I, 25 кадр/c, 8 725 Kbps
Аудио: MP2 2.0, 48.0 KHz, 192 kb/s
Продолжительность
2:34:19

Скриншоты

MediaInfo

GeneralUnique ID : 222072325259168449615398147306698350217 (0xA71192F874AA289087270123E7E49E89)Complete name : Z:\01.SYS\DISKSTATIC\06.NASOTHER_002\Indycar\INDYCAR_2015_R12_ABC_SUPPLY_WISCONSIN_250_1080I_RU_EN.MKVFormat : MatroskaFormat version : Version 4 / Version 2File size : 9.82 GiBDuration : 2h 34mnOverall bit rate : 9 113 KbpsEncoded date : UTC 2015-07-12 23:55:51Writing application : mkvmerge v8.1.0 ('Psychedelic Postcard') 32bitWriting library : libebml v1.3.1 + libmatroska v1.4.2
VideoID : 1Format : AVCFormat/Info : Advanced Video CodecFormat profile : Main@L4Format settings, CABAC : YesFormat settings, ReFrames : 4 framesFormat settings, GOP : M=4, N=28Codec ID : V_MPEG4/ISO/AVCDuration : 2h 34mnBit rate : 8 725 KbpsWidth : 1 920 pixelsHeight : 1 080 pixelsDisplay aspect ratio : 16:9Frame rate mode : VariableFrame rate : 50.000 fpsOriginal frame rate : 25.000 fpsStandard : ComponentColor space : YUVChroma subsampling : 4:2:0Bit depth : 8 bitsScan type : InterlacedScan type, store method : Separated fieldsScan order : Top Field FirstBits/(Pixel*Frame) : 0.084Stream size : 9.40 GiB (96%)Title : mexDefault : YesForced : NoColor range : LimitedColor primaries : BT.709Transfer characteristics : BT.709Matrix coefficients : BT.709
Audio #1ID : 2Format : MPEG AudioFormat version : Version 1Format profile : Layer 2Codec ID : A_MPEG/L2Codec ID/Hint : MP2Duration : 2h 34mnBit rate mode : ConstantBit rate : 192 KbpsChannel(s) : 2 channelsSampling rate : 48.0 KHzFrame rate : 41.663 fps (1152 spf)Compression mode : LossyDelay relative to video : 144msStream size : 212 MiB (2%)Title : Viasat SportLanguage : RussianDefault : YesForced : No
Audio #2ID : 3Format : MPEG AudioFormat version : Version 1Format profile : Layer 2Codec ID : A_MPEG/L2Codec ID/Hint : MP2Duration : 2h 34mnBit rate mode : ConstantBit rate : 192 KbpsChannel(s) : 2 channelsSampling rate : 48.0 KHzFrame rate : 41.663 fps (1152 spf)Compression mode : LossyDelay relative to video : 144msStream size : 212 MiB (2%)Title : NBC SNLanguage : EnglishDefault : NoForced : No

18.07 | Этап 13 | Iowa Corn 300 | 1080I | RU/EN

Дата/Год выпуска: 18.07.2015
Язык комментариев: Русский (Сергей Беднарук), Английский
Автор рипа/записи: mex_mangust
Качество: DVB-S2 Remux
Видео: H264, 1920x1080I, 25 кадр/c, 8 645 Kbps
Аудио: MP2 2.0, 48.0 KHz, 192 kb/s
Продолжительность
2:30:49

Скриншоты

MediaInfo

GeneralUnique ID : 190924618958492931803137806818452370695 (0x8FA2BE7BD9639582A8365CC50806F507)Complete name : Z:\01.SYS\DISKSTATIC\06.NASOTHER_002\Indycar\INDYCAR_2015_R13_IOWA_CORN_300_1080I_RU_EN.MKVFormat : MatroskaFormat version : Version 4 / Version 2File size : 9.52 GiBDuration : 2h 30mnOverall bit rate : 9 033 KbpsEncoded date : UTC 2015-07-19 07:01:11Writing application : mkvmerge v8.1.0 ('Psychedelic Postcard') 32bitWriting library : libebml v1.3.1 + libmatroska v1.4.2
VideoID : 1Format : AVCFormat/Info : Advanced Video CodecFormat profile : Main@L4Format settings, CABAC : YesFormat settings, ReFrames : 4 framesCodec ID : V_MPEG4/ISO/AVCDuration : 2h 30mnBit rate : 8 645 KbpsWidth : 1 920 pixelsHeight : 1 080 pixelsDisplay aspect ratio : 16:9Frame rate mode : VariableFrame rate : 50.000 fpsOriginal frame rate : 25.000 fpsStandard : ComponentColor space : YUVChroma subsampling : 4:2:0Bit depth : 8 bitsScan type : InterlacedScan type, store method : Separated fieldsScan order : Top Field FirstBits/(Pixel*Frame) : 0.083Stream size : 9.11 GiB (96%)Title : mexDefault : YesForced : NoColor range : LimitedColor primaries : BT.709Transfer characteristics : BT.709Matrix coefficients : BT.709
Audio #1ID : 2Format : MPEG AudioFormat version : Version 1Format profile : Layer 2Codec ID : A_MPEG/L2Codec ID/Hint : MP2Duration : 2h 30mnBit rate mode : ConstantBit rate : 192 KbpsChannel(s) : 2 channelsSampling rate : 48.0 KHzFrame rate : 41.667 fps (1152 spf)Compression mode : LossyDelay relative to video : 136msStream size : 207 MiB (2%)Title : Viasat SportLanguage : RussianDefault : YesForced : No
Audio #2ID : 3Format : MPEG AudioFormat version : Version 1Format profile : Layer 2Codec ID : A_MPEG/L2Codec ID/Hint : MP2Duration : 2h 30mnBit rate mode : ConstantBit rate : 192 KbpsChannel(s) : 2 channelsSampling rate : 48.0 KHzFrame rate : 41.667 fps (1152 spf)Compression mode : LossyDelay relative to video : 136msStream size : 207 MiB (2%)Title : NBC SNLanguage : EnglishDefault : NoForced : No

02.08 | Этап 14 | Honda Indy 200 at Mid-Ohio | 1080I | RU/EN

Дата/Год выпуска: 02.08.2015
Язык комментариев: Русский (Сергей Беднарук), Английский
Автор рипа/записи: mex_mangust
Качество: DVB-S2 Remux
Видео: H264, 1920x1080I, 25 кадр/c, 8 874 Kbps
Аудио: MP2 2.0, 48.0 KHz, 192 kb/s
Продолжительность
2:30:49

Скриншоты

MediaInfo

GeneralUnique ID : 170644304656327285501795212040255963061 (0x8060E5CA45A246D7A240B791C265FFB5)Complete name : Z:\01.SYS\DISKSTATIC\06.NASOTHER_002\Indycar\INDYCAR_2015_R14_HONDA_INDY_200_AT_MID-OHIO_1080I_RU_EN.MKVFormat : MatroskaFormat version : Version 4 / Version 2File size : 11.3 GiBDuration : 2h 54mnOverall bit rate : 9 262 KbpsEncoded date : UTC 2015-08-02 20:50:01Writing application : mkvmerge v8.1.0 ('Psychedelic Postcard') 32bitWriting library : libebml v1.3.1 + libmatroska v1.4.2
VideoID : 1Format : AVCFormat/Info : Advanced Video CodecFormat profile : Main@L4Format settings, CABAC : YesFormat settings, ReFrames : 4 framesCodec ID : V_MPEG4/ISO/AVCDuration : 2h 54mnBit rate : 8 874 KbpsWidth : 1 920 pixelsHeight : 1 080 pixelsDisplay aspect ratio : 16:9Frame rate mode : VariableFrame rate : 50.000 fpsOriginal frame rate : 25.000 fpsStandard : ComponentColor space : YUVChroma subsampling : 4:2:0Bit depth : 8 bitsScan type : InterlacedScan type, store method : Separated fieldsScan order : Top Field FirstBits/(Pixel*Frame) : 0.086Stream size : 10.8 GiB (96%)Title : mexDefault : YesForced : NoColor range : LimitedColor primaries : BT.709Transfer characteristics : BT.709Matrix coefficients : BT.709
Audio #1ID : 2Format : MPEG AudioFormat version : Version 1Format profile : Layer 2Codec ID : A_MPEG/L2Codec ID/Hint : MP2Duration : 2h 54mnBit rate mode : ConstantBit rate : 192 KbpsChannel(s) : 2 channelsSampling rate : 48.0 KHzFrame rate : 41.665 fps (1152 spf)Compression mode : LossyDelay relative to video : 128msStream size : 240 MiB (2%)Title : Viasat SportLanguage : RussianDefault : YesForced : No
Audio #2ID : 3Format : MPEG AudioFormat version : Version 1Format profile : Layer 2Codec ID : A_MPEG/L2Codec ID/Hint : MP2Duration : 2h 54mnBit rate mode : ConstantBit rate : 192 KbpsChannel(s) : 2 channelsSampling rate : 48.0 KHzFrame rate : 41.665 fps (1152 spf)Compression mode : LossyDelay relative to video : 128msStream size : 240 MiB (2%)Title : CNBCLanguage : EnglishDefault : NoForced : No

23.08 | Этап 15 | ABC Supply 500 | 1080I | RU/EN

Дата/Год выпуска: 23.08.2015
Язык комментариев: Русский (Сергей Беднарук, Михаил Алёшин), Английский
Автор рипа/записи: SashaR
Качество: DVB-S2 Remux
Видео: H264, 1920x1080I, 25 кадр/c, 8 848 Kbps
Аудио: MP2 2.0, 48.0 KHz, 192 kb/s
Продолжительность
3:51:46

Скриншоты

MediaInfo

GeneralUnique ID : 176894439608598049728225992521478421248 (0x8514A13C2198B22493C53D20B39DBB00)Complete name : Z:\01.SYS\DISKSTATIC\01.SYS\FASTTORRENT\Автоспорт\Indycar\INDYCAR_2015_VIASAT_SPORT_HD\INDYCAR_2015_R15_ABC_SUPPLY_500_1080I_RU_EN.MKVFormat : MatroskaFormat version : Version 4 / Version 2File size : 15.0 GiBDuration : 3h 51mnOverall bit rate : 9 236 KbpsEncoded date : UTC 2016-08-23 20:28:30Writing application : mkvmerge v9.4.0 ('Knurl') 64bitWriting library : libebml v1.3.4 + libmatroska v1.4.5
VideoID : 1Format : AVCFormat/Info : Advanced Video CodecFormat profile : Main@L4Format settings, CABAC : YesFormat settings, ReFrames : 4 framesCodec ID : V_MPEG4/ISO/AVCDuration : 3h 51mnBit rate : 8 848 KbpsWidth : 1 920 pixelsHeight : 1 080 pixelsDisplay aspect ratio : 16:9Frame rate mode : VariableFrame rate : 50.000 fpsOriginal frame rate : 25.000 fpsStandard : ComponentColor space : YUVChroma subsampling : 4:2:0Bit depth : 8 bitsScan type : InterlacedScan type, store method : Separated fieldsScan order : Bottom Field FirstBits/(Pixel*Frame) : 0.085Stream size : 14.3 GiB (96%)Default : YesForced : NoColor range : LimitedColor primaries : BT.709Transfer characteristics : BT.709Matrix coefficients : BT.709
Audio #1ID : 2Format : MPEG AudioFormat version : Version 1Format profile : Layer 2Codec ID : A_MPEG/L2Codec ID/Hint : MP2Duration : 3h 51mnBit rate mode : ConstantBit rate : 192 KbpsChannel(s) : 2 channelsSampling rate : 48.0 KHzFrame rate : 41.667 fps (1152 spf)Compression mode : LossyDelay relative to video : 160msStream size : 318 MiB (2%)Language : RussianDefault : YesForced : No
Audio #2ID : 3Format : MPEG AudioFormat version : Version 1Format profile : Layer 2Codec ID : A_MPEG/L2Codec ID/Hint : MP2Duration : 3h 51mnBit rate mode : ConstantBit rate : 192 KbpsChannel(s) : 2 channelsSampling rate : 48.0 KHzFrame rate : 41.667 fps (1152 spf)Compression mode : LossyDelay relative to video : 136msStream size : 318 MiB (2%)Language : EnglishDefault : NoForced : No

30.08 | Этап 16 | GoPro Grand Prix of Sonoma | 720P | RU/EN

Дата/Год выпуска: 30.08.2015
Язык комментариев: Русский (Сергей Беднарук), Английский
Автор рипа/записи: *13*
Качество: DVB-S2 Rip
Видео: H264, 1280x720P, 50 кадр/c, 3 500 Kbps
Аудио: MP2 2.0, 48.0 KHz, 192 kb/s
Продолжительность
3:26:45

Скриншоты

MediaInfo

GeneralUnique ID : 250693937544799383576702206523688319643 (0xBC99E56814859DEDBED67D8A54C77A9B)Complete name : Z:\01.SYS\DISKSTATIC\06.NASOTHER_002\Indycar\INDYCAR_2015_R16_GOPRO_GRAND_PRIX_OF_SONOMA_720P_RU_EN.MKVFormat : MatroskaFormat version : Version 4 / Version 2File size : 5.64 GiBDuration : 3h 26mnOverall bit rate : 3 904 KbpsEncoded date : UTC 2015-08-31 18:00:44Writing application : mkvmerge v8.1.0 ('Psychedelic Postcard') 32bitWriting library : libebml v1.3.1 + libmatroska v1.4.2
VideoID : 1Format : AVCFormat/Info : Advanced Video CodecFormat profile : Main@L3.2Format settings, CABAC : YesFormat settings, ReFrames : 4 framesCodec ID : V_MPEG4/ISO/AVCDuration : 3h 26mnBit rate : 3 517 KbpsWidth : 1 280 pixelsHeight : 720 pixelsDisplay aspect ratio : 16:9Frame rate mode : VariableFrame rate : 49.918 fpsColor space : YUVChroma subsampling : 4:2:0Bit depth : 8 bitsScan type : ProgressiveBits/(Pixel*Frame) : 0.076Stream size : 5.08 GiB (90%)Title : mexDefault : YesForced : No
Audio #1ID : 2Format : MPEG AudioFormat version : Version 1Format profile : Layer 2Codec ID : A_MPEG/L2Codec ID/Hint : MP2Duration : 3h 26mnBit rate mode : ConstantBit rate : 192 KbpsChannel(s) : 2 channelsSampling rate : 48.0 KHzFrame rate : 41.608 fps (1154 spf)Compression mode : LossyDelay relative to video : 4msStream size : 284 MiB (5%)Title : Viasat SportLanguage : RussianDefault : YesForced : No
Audio #2ID : 3Format : MPEG AudioFormat version : Version 1Format profile : Layer 2Codec ID : A_MPEG/L2Codec ID/Hint : MP2Duration : 3h 26mnBit rate mode : ConstantBit rate : 192 KbpsChannel(s) : 2 channelsSampling rate : 48.0 KHzFrame rate : 41.608 fps (1154 spf)Compression mode : LossyDelay relative to video : 4msStream size : 284 MiB (5%)Language : EnglishDefault : NoForced : No

_________________
Показать сообщения:    

Текущее время: Сегодня 09:53

Часовой пояс: GMT



Вы не можете начинать темы
Вы не можете отвечать на сообщения
Вы не можете редактировать свои сообщения
Вы не можете удалять свои сообщения
Вы не можете голосовать в опросах
Вы не можете прикреплять файлы к сообщениям
Вы не можете скачивать файлы