Важное объявление!
У Нас Все раздачи мультитрекерные, при нуле пиров в релизах, можете смело вставать на закачку!
 
Автор Сообщение

HUNTER

Стаж:
4 года 4 месяца
Сообщений:
56829

Репутация: 101

[+] [-]
Вне форума [Профиль] [ЛС]

Verizon Indycar Series 2014. Этап 03. Honda Grand Prix Of Alabama. Гонка
Вид спорта: Indycar
Дата/Год выпуска: 27.04.2014
Язык комментариев: Russian (Беднарук)
Описание: Это сжатый рип этого релиза: http://rutracker.org/forum/viewtopic.php?t=4726776
Без старта!!!!
Автор рипа/записи: VАDЕR
Качество: TVRip
Формат видео: AVI
Видео: MPEG-4 Visual 512x384 3544 Kbps 25fps
Аудио: MPEG Audio 44100Hz 128 kbps stereo

Продолжительность

01:47:29

Скриншоты

отчет MediaInfo

Формат/Информация : Audio Video Interleave
Профиль формата : OpenDML
Размер файла : 2,66 Гбайт
Продолжительность : 1 ч. 47 м.
Общий поток : 3544 Кбит/сек
Программа кодирования : Lavf55.19.104
Видео
Идентификатор : 0
Формат : MPEG-4 Visual
Профиль формата : Simple@L1
Параметр BVOP формата : Нет
Параметр QPel формата : Нет
Параметр GMC формата : Без точки перехода
Параметр матрицы формата : Default (H.263)
Идентификатор кодека : FMP4
Продолжительность : 1 ч. 47 м.
Битрейт : 3404 Кбит/сек
Ширина : 512 пикселей
Высота : 384 пикселя
Соотношение сторон : 4:3
Частота кадров : 25,000 кадров/сек
Цветовое пространство : YUV
Субдискретизация насыщенности : 4:2:0
Битовая глубина : 8 бит
Тип развёртки : Прогрессивная
Метод сжатия : С потерями
Бит/(Пиксели*Кадры) : 0.693
Размер потока : 2,56 Гбайт (96%)
Библиотека кодирования : Lavc55.39.100
Аудио
Идентификатор : 1
Формат : MPEG Audio
Версия формата : Version 1
Профиль формата : Layer 3
Режим : Joint stereo
Расширение режима : MS Stereo
Идентификатор кодека : 55
Идентификатор кодека/Подсказка : MP3
Продолжительность : 1 ч. 47 м.
Вид битрейта : Постоянный
Битрейт : 128 Кбит/сек
Каналы : 2 канала
Частота : 44,1 КГц
Метод сжатия : С потерями
Размер потока : 98,4 Мбайт (4%)
Выравнивание : Соединение по промежуткам
Продолжительность промежутка : 26 мс. (0,65 видеокадр)
Библиотека кодирования : LAME3.98.4

Этапы

Дата--------------Трасса--------------Тип трассы
30 марта-------------Сент-Питерсберг------городская - http://rutracker.org/forum/viewtopic.php?t=4718744
13 апреля-----------Лонг-Бич---------------городская - http://rutracker.org/forum/viewtopic.php?t=4718903
26 апреля-----------Барбер-----------------дорожная
10 мая---------------Индианаполис---------дорожная
25 мая---------------Индианаполис---------овал
31 мая-1 июня------Детройт *--------------городская
7 июня--------------Техас-------------------овал
28-29 июня---------Хьюстон *--------------городская
6 июля--------------Поконо------------------овал
12 июля-------------Айова-------------------овал
19-20 июля---------Торонто *---------------городская
3 августа------------Мид-Огайо-------------дорожная
17 августа-----------Милуоки----------------овал
24 августа-----------Сонома-----------------дорожная
30 агуста------------Фонтана----------------овал
* — в рамках этапа пройдут две гонки

_________________
Показать сообщения:    

Текущее время: Сегодня 14:31

Часовой пояс: GMT



Вы не можете начинать темы
Вы не можете отвечать на сообщения
Вы не можете редактировать свои сообщения
Вы не можете удалять свои сообщения
Вы не можете голосовать в опросах
Вы не можете прикреплять файлы к сообщениям
Вы не можете скачивать файлы