Важное объявление!
У Нас Все раздачи мультитрекерные, при нуле пиров в релизах, можете смело вставать на закачку!
 
Автор Сообщение

HUNTER

Стаж:
4 года 4 месяца
Сообщений:
56822

Репутация: 101

[+] [-]
Вне форума [Профиль] [ЛС]

Verizon Indycar Series 2014. Этап 02. Toyota Grand Prix Of Long Beach. Гонка
Вид спорта: Indycar
Дата/Год выпуска: 13.04.2014
Язык комментариев: Russian (Беднарук)
Описание: Indycar 2014. Этап 2. Лонг-Бич. США
Это сжатая версия рипа: http://rutracker.org/forum/viewtopic.php?t=4716250
Автор рипа/записи: VАDЕR
Качество: TVRip
Формат видео: AVI
Видео: xvid 512x384 2000 Kbps 25fps
Аудио: MPEG Audio 44100Hz 128 kbps stereo

Продолжительность

02:28:48

отчет MediaInfo

Битрейт : 2000 Кбит/сек
Ширина : 512 пикселей
Высота : 384 пикселя
Соотношение сторон : 4:3
Частота кадров : 25,000 кадров/сек
Бит/(Пиксели*Кадры) : 0.407
Размер потока : 2,08 Гбайт (93%)
Аудио
Идентификатор : 1
Формат : MPEG Audio
Версия формата : Version 1
Профиль формата : Layer 3
Режим : Joint stereo
Расширение режима : MS Stereo
Идентификатор кодека : 55
Идентификатор кодека/Подсказка : MP3
Продолжительность : 2 ч. 28 м.
Вид битрейта : Постоянный
Битрейт : 128 Кбит/сек
Каналы : 2 канала
Частота : 44,1 КГц
Метод сжатия : С потерями
Размер потока : 136 Мбайт (6%)
Выравнивание : Соединение по промежуткам
Продолжительность промежутка : 26 мс. (0,65 видеокадр)
Библиотека кодирования : LAME3.98.4

Этапы

Дата--------------Трасса--------------Тип трассы
30 марта-------------Сент-Питерсберг------городская - http://rutracker.org/forum/viewtopic.php?t=4718744
13 апреля-----------Лонг-Бич---------------городская
26 апреля-----------Барбер-----------------дорожная
10 мая---------------Индианаполис---------дорожная
25 мая---------------Индианаполис---------овал
31 мая-1 июня------Детройт *--------------городская
7 июня--------------Техас-------------------овал
28-29 июня---------Хьюстон *--------------городская
6 июля--------------Поконо------------------овал
12 июля-------------Айова-------------------овал
19-20 июля---------Торонто *---------------городская
3 августа------------Мид-Огайо-------------дорожная
17 августа-----------Милуоки----------------овал
24 августа-----------Сонома-----------------дорожная
30 агуста------------Фонтана----------------овал
* — в рамках этапа пройдут две гонки

_________________
Показать сообщения:    

Текущее время: Сегодня 08:11

Часовой пояс: GMT



Вы не можете начинать темы
Вы не можете отвечать на сообщения
Вы не можете редактировать свои сообщения
Вы не можете удалять свои сообщения
Вы не можете голосовать в опросах
Вы не можете прикреплять файлы к сообщениям
Вы не можете скачивать файлы