Ивановский Торрент трекер
Яндекс.Погода
 

[Quote]
HUNTER

Вайолет Эвергарден (Фильм) / Gekijouban Violet Evergarden / Violet Evergarden the Movie- Продолжительность: 2ч 20 мин.
Год выпуска: 2020
Страна: Япония
Тип: Movie
Жанр: драма, повседневность, фэнтези
Режиссёр: Исидатэ Тайти
Студия: Kyoto Animation-Описание: Вайолет продолжает помогать другим людям писать письма, выражая все чувства клиентов на бумаге. Однако она всё никак не может забыть о майоре Гилберте Бугенвиллее, который однажды дал ей возможность понять, что же значит «Я люблю тебя» и шанс начать жизнь с чистого листа.
Однажды она встречает старшего брата Гилберта — Дитфрида, который всё твердит ей позабыть о прошлом, связанным с майором, и идти навстречу будущему, но она, конечно же, понимает, что это крайне трудно смириться с потерей дорогого человека и подавить огромную боль в душе. Вскоре после этого поступает заказ от очередного клиента, а на складе почтового отделения оказывается письмо без адреса получателя. Достигнет ли Вайолет цели, и что ждёт девушку в дальнейшем?-Озвучки:
Многоголосый дубляж от Reanimedia
Исходный 6 канальный дубляж был предоставлен группой FortunaTV.
-Информационные ссылки: AniDB || World Art-Качество: WEB-DL
Рип: [DucksterPS]
Формат видео: MKV
Наличие линковки: нет
Тип релиза: без хардсаба
Видео: AVC, 8 bit, 1920x1080, 24,000 fps, 2 940 Kbps
Аудио: JAP: E-AC-3, 48.0 kHz, 6ch, 640 Kbps
Аудио: RUS: AAC, 48.0 kHz, 6ch, 448 Kbps (внешним файлом)
Субтитры: RUS: ASS (внешним файлом)-#1 Субтитры: Netflix
Переводчик: Эльвира Сименюра-

Актёры дубляжа

Айрис Каннари — Виктория Черникова
Бенедикт Блю — Василий Шумский (Марков)
Вайолет Эвергарден — Маргарита Иванова
Гилберт Бугенвиллея — Александр Рубан
Гилберт Бугенвиллея (ребёнок) — Артём Фильченко
Дитфрид Бугенвиллея — Евгений Баханов
Дэйзи — Анастасия Климушкина
жена мэра — Татьяна Егорова
Каттлея Бодлер — Екатерина Марсальская
Клара Магнолия — Алевтина Чернявская
Клаудия Ходжинс — Михаил Каданин
Лилиан — Мария Новокшенова
Люка — Анна Балицкая
мальчик — Мария Новокшенова
мальчик — Анастасия Климушкина
мальчик — Екатерина Тоборовец
мальчик — Алина Теплова
мама Юриса — Надежда Иванова
мать Дэйзи — Екатерина Тоборовец
мэр — Роман Слатвинский
Нерина — Алина Теплова
Нерина (бабушка) — Светлана Поваляева
отец Дэйзи — Александр Фильченко
отец Юриса — Вячеслав Гардер
почтальон — Александр Жданов
священник — Павел Рукавицын
Сион — Екатерина Астрединова
старик в кепке — Вячеслав Бухтояров
старушка с косами — Татьяна Егорова
хозяйка маяка — Ольга Мацкевич
Эрика Браун — Вероника Одинг
Юрис — Милена Хорошко
автор русского перевода — Ксения Чернышкова
звукорежиссер — Александр Фильченко
режиссер дубляжа — Александр Фильченко

Скриншоты

Отличия от других раздач

https://rutracker.org/forum/viewtopic.php?t=6118119 [1080p]
https://rutracker.org/forum/viewtopic.php?t=6053767 [наличие озвучки в комплекте с субтитрами]

MediaInfo

Общее
Уникальный идентификатор : 273018524848803692843944079540502807785 (0xCD65748A782572342A27012C952E44E9)
Полное имя : E:\Раздачи\[Beatrice-Raws] Violet Evergarden Gaiden - Eien to Jidou Shuki Ningyou [804p x265 FLAC]\[Beatrice-Raws] Violet Evergarden Gaiden - Eien to Jidou Shuki Ningyou [804p x265 FLAC].mkv
Формат : Matroska
Версия формата : Version 4
Размер файла : 4,92 Гбайт
Продолжительность : 1 ч. 30 м.
Режим общего битрейта : Переменный
Общий поток : 7 777 Кбит/сек
Дата кодирования : UTC 2020-04-05 09:33:17
Программа кодирования : mkvmerge v44.0.0 ('Domino') 64-bit
Библиотека кодирования : libebml v1.3.10 + libmatroska v1.5.2
Видео
Идентификатор : 1
Формат : HEVC
Формат/Информация : High Efficiency Video Coding
Профиль формата : Main [email protected]@Main
Идентификатор кодека : V_MPEGH/ISO/HEVC
Продолжительность : 1 ч. 30 м.
Битрейт : 6 471 Кбит/сек
Ширина : 1 920 пикселей
Высота : 804 пикселя
Соотношение сторон : 2,40:1
Режим частоты кадров : Постоянный
Частота кадров : 23,976 (24000/1001) кадра/сек
Цветовое пространство : YUV
Субдискретизация насыщенности : 4:2:0
Битовая глубина : 10 бит
Бит/(Пиксели*Кадры) : 0.175
Размер потока : 4,10 Гбайт (83%)
Библиотека кодирования : x265 3.3+11-f029350c1075:[DJATOM's Mod][Windows][GCC 9.2.1][64 bit] 10bit
Настройки программы : cpuid=1049583 / frame-threads=16 / numa-pools=24,24 / wpp / pmode / pme / no-psnr / no-ssim / log-level=2 / csv / csv-log-level=2 / input-csp=1 / input-res=1920x804 / interlace=0 / total-frames=130416 / level-idc=0 / high-tier=1 / uhd-bd=0 / ref=4 / no-allow-non-conformance / no-repeat-headers / annexb / no-aud / no-hrd / info / hash=0 / no-temporal-layers / open-gop / min-keyint=23 / keyint=240 / gop-lookahead=0 / bframes=9 / b-adapt=2 / b-pyramid / bframe-bias=0 / rc-lookahead=20 / lookahead-slices=5 / scenecut=40 / hist-scenecut=0 / radl=0 / no-splice / no-intra-refresh / ctu=64 / min-cu-size=8 / no-rect / no-amp / max-tu-size=32 / tu-inter-depth=4 / tu-intra-depth=4 / limit-tu=0 / rdoq-level=2 / dynamic-rd=0.00 / no-ssim-rd / signhide / no-tskip / nr-intra=0 / nr-inter=0 / no-constrained-intra / no-strong-intra-smoothing / max-merge=5 / limit-refs=1 / limit-modes / me=3 / subme=5 / merange=48 / temporal-mvp / no-frame-dup / no-hme / weightp / weightb / analyze-src-pics / deblock=1:-1 / no-sao / no-sao-non-deblock / rd=5 / selective-sao=0 / no-early-skip / no-rskip / no-fast-intra / no-tskip-fast / no-cu-lossless / b-intra / no-splitrd-skip / rdpenalty=0 / psy-rd=2.50 / psy-rdoq=4.00 / rd-refine / no-lossless / cbqpoffs=-2 / crqpoffs=-2 / rc=crf / crf=14.5 / qcomp=0.72 / qpstep=4 / stats-write=0 / stats-read=0 / ipratio=1.40 / pbratio=1.30 / aq-mode=4 / aq-strength=0.86 / no-cutree / zone-count=0 / no-strict-cbr / qg-size=32 / no-rc-grain / qpmax=69 / qpmin=0 / no-const-vbv / sar=1 / overscan=0 / videoformat=5 / range=0 / colorprim=1 / transfer=1 / colormatrix=1 / chromaloc=0 / display-window=0 / cll=0,0 / min-luma=0 / max-luma=1023 / log2-max-poc-lsb=8 / vui-timing-info / vui-hrd-info / slices=1 / no-opt-qp-pps / no-opt-ref-list-length-pps / no-multi-pass-opt-rps / scenecut-bias=0.05 / hist-threshold=0.01 / no-opt-cu-delta-qp / no-aq-motion / no-hdr10 / no-hdr10-opt / no-dhdr10-opt / no-idr-recovery-sei / analysis-reuse-level=0 / analysis-save-reuse-level=0 / analysis-load-reuse-level=0 / scale-factor=0 / refine-intra=0 / refine-inter=0 / refine-mv=1 / refine-ctu-distortion=0 / no-limit-sao / ctu-info=0 / no-lowpass-dct / refine-analysis-type=0 / copy-pic=1 / max-ausize-factor=1.0 / no-dynamic-refine / no-single-sei / hevc-aq / no-svt / no-field / qp-adaptation-range=4.00 / no-scenecut-aware-qpconformance-window-offsets / right=0 / bottom=0
Язык : Japanese
Default : Да
Forced : Нет
Цветовой диапазон : Limited
Основные цвета : BT.709
Характеристики трансфера : BT.709
Коэффициенты матрицы : BT.709
Аудио
Идентификатор : 2
Формат : FLAC
Формат/Информация : Free Lossless Audio Codec
Идентификатор кодека : A_FLAC
Продолжительность : 1 ч. 30 м.
Вид битрейта : Переменный
Битрейт : 1 304 Кбит/сек
Каналы : 2 канала
Channel layout : L R
Частота : 48,0 КГц
Частота кадров : 11,719 кадров/сек (4096 SPF)
Битовая глубина : 24 бит
Метод сжатия : Без потерь
Размер потока : 846 Мбайт (17%)
Библиотека кодирования : CUETools FLACCL 2.1.6
Язык : Japanese
Default : Да
Forced : Нет
Меню
00:00:00.000 : en:Avant
00:09:55.761 : en:Part A
00:19:59.656 : en:Part B
00:29:55.418 : en:Part C
00:43:28.814 : en:Part D
00:53:38.840 : en:Part E
01:03:20.713 : en:Part F
01:13:29.780 : en:Part G
01:25:44.514 : en:ED

avdump

File: E:\Раздачи\[Beatrice-Raws] Violet Evergarden Gaiden - Eien to Jidou Shuki Ningyou [804p x265 FLAC]\[Beatrice-Raws] Violet Evergarden Gaiden - Eien to Jidou Shuki Ningyou [804p x265 FLAC].mkv
Duration: 01:30:39 (5439.44)
Track #1: video
lang: jpn (2)
codc: V_MPEGH/ISO/HEVC -> Unknown (1)
reso: 1920x804 -> Unknown (aka not common)
fram: 23.976 fps
rate: 6471 kbps (6471.35)
dura: 01:30:39 (5439.39)
size: 4.10 GB (4400024367)
Track #2: audio
lang: jpn -> Japanese (2)
codc: A_FLAC -> Other (15)
chan: 2 -> Stereo
samp: 48000 Hz
rate: 1304 kbps (1304.28)
dura: 01:30:39 (5439.40)
size: 845.73 MB (886812805)
Sizes: (check sanity)
disk: 4.92 GB (5287972738)
trac: 945.92 MB (991869876) [based on track size]
bitr: 4.92 GB (5286835467) [based on bitrate]
tdif: 4.00 GB (4296102862) 81.24%
bdif: 1.08 MB (1137270) 0.02%


Display posts:    

Current time is: 26-Oct 05:35

All times are UTC ± 0


You cannot post new topics in this forum
You cannot reply to topics in this forum
You cannot edit your posts in this forum
You cannot delete your posts in this forum
You cannot vote in polls in this forum
You cannot attach files in this forum
You cannot download files in this forum

!ATTENTION!
The site does not give electronic versions of products, and is engaged only in a collecting and cataloguing of the references sent and published at a forum by our readers. If you are the legal owner of any submitted material and do not wish that the reference to it was in our catalogue, contact us and we shall immediately remove her. Files for an exchange on tracker are given by users of a site, and the administration does not bear the responsibility for their maintenance. The request to not fill in the files protected by copyrights, and also files of the illegal maintenance!