Ивановский Торрент трекер
Яндекс.Погода
 

[Цитировать]
HUNTER

Вадим Шлахтер - Хочу денег (г. Воронеж, 4 июля 2013)
Страна: Россия
Тематика: Психология
Тип раздаваемого материала: Тренинг
Продолжительность: 00:23:12
Год выпуска: 2013
Язык: Русский
Перевод: Не требуется
Язык субтитров: нет
Описание: Тренинг Вадима Шлахтера Хочу денег, этот тренинг о том, как побороть свои страхи, как приучить себя делать в сотни раз больше и зарабатывать пропорционально своим усилиям.
Доп. информация:
При съемке треннинга неожиданно закончился заряд аккумулятора, поэтому видео снято не до конца.
Качество: DVDRip
Формат: AVI
Видео кодек: XviD
Аудио кодек: AC3
Видео: XviD, 720x400, 25 fps, 1159 kbps
Аудио: Dolby AC3 44.1 kHz, stereo, 192 kbps

MediaInfo

Общее
Полное имя : Вадим Шлахтер - Хочу денег (г. Воронеж, 4 июля 2013).avi
Формат : AVI
Формат/Информация : Audio Video Interleave
Размер файла : 225 Мбайт
Продолжительность : 23 м.
Общий поток : 1358 Кбит/сек
TCOD : 0
TCDO : 13923200000
Видео
Идентификатор : 0
Формат : MPEG-4 Visual
Профиль формата : Advanced Simple@L5
Параметр BVOP формата : 1
Параметр QPel формата : Нет
Параметр GMC формата : Без точки перехода
Параметр матрицы формата : Выборочная
Идентификатор кодека : XVID
Идентификатор кодека/Подсказка : XviD
Продолжительность : 23 м.
Битрейт : 1061 Кбит/сек
Ширина : 720 пикс.
Высота : 400 пикс.
Соотношение сторон : 16:9
Частота кадров : 25,000 кадр/сек
Цветовое пространство : YUV
Подвыборка цветности : 4:2:0
Битовая глубина : 8 бит
Тип развёртки : Прогрессивная
Метод сжатия : С потерями
Бит/(Пиксели*Кадры) : 0.147
Размер потока : 176 Мбайт (78%)
Библиотека кодирования : XviD 1.2.0.dev47 (UTC 2006-11-01)
Аудио
Идентификатор : 1
Формат : AC-3
Формат/Информация : Audio Coding 3
Идентификатор кодека : 2000
Продолжительность : 23 м.
Вид битрейта : Постоянный
Битрейт : 192 Кбит/сек
Канал(ы) : 2 канала(ов)
Частота : 44,1 КГц
Метод сжатия : С потерями
Размер потока : 31,8 Мбайт (14%)
Выравнивание : Разделение по промежуткам
Продолжительность промежутка : 40 мс. (1,00 видеокадр)
Время предзагрузки промежутка : 69 ms

Скриншоты

Краткая программа тренинга

Подробная программа тренинга

1. Работа с установками. Пересмотр детских и подростковых программ, мешающих становиться обладателем денег:
• Пересмотр установок от сказок, книг, фильмов , воспевающих бедность и порицающих богатство.
• Пересмотр запавших в подсознание высказываний «авторитетных» людей.
• Пересмотр детских и подростковых комплексов, страхов и запретов.
2. Мотивация. Целеполагание и задачи. Этапы реализации целей.
• Уяснение «Зачем?» и «Для чего?». Понимание во имя чего напрягаться.
• Уяснение цели и необходимых ресурсов ее достижения. ( Сколько вам нужно для счастья?)
• Мотивация и стимуляция. Кнут и пряник к себе любимому.
3. Анализ «Историй успеха». Выявление главного в историях людей, добившихся богатства и постановка на вооружение алгоритмов.
4. Работа со страхами. Страхи внутриличностные и социальные.
• Страх последнего шага
• Страх успеха.
• Страх перед будущим.
• Страх перемен.
• Страх потери достатка.
• Страх отторжения социальным кругом.
• Страх трансформации.
• Методы и способы преодоления страхов. Техники прописывания, проговаривания и осознания.
5. Вера в себя, доверие к себе, вера в свою компетентность.
• Основы веры
• Устойчивость веры при столкновении с реальностью
• Восстановление слабеющей веры
6. Технология планирования. Планирование целей задач и ресурсов.
• Методика составления личных планов.
• Развитие причинно-следственного и пространственно-временного ума.
• Тренировка в осознанности. Понимание «что?», «как?» и «зачем?».
7. Умение отсекать лишнее. Отказ от распыления. Умение сконцентрироваться на главном. Сосредоточение на самых важных направлениях.
• Умение довольствоваться малым. Уяснение и тренировка
• Оптимизация потребностей своих и ближайшего окружения.
• Психическое замещение и отказ от лишнего.
8. Развитие «аппетита». Развитие и культивирование потребностей.
• Работа с амбициями. Подъем самооценки.
• «Белая» зависть или пожелай себе того же!
• Детский «стереотип» отдай игрушку- получи игрушку.
• Работа с самооценкой и амбициями.
9. Создание образа мыслей богатого человека. Смена категорий мышления.
• Упражнение «Одень костюм Рокфеллера».
• Ролевые игры и упражнения. Отработка поведения Человека Власти и денег.
10. Вовлечение нужных людей и денег в вашу жизнь. Элементы работы с психической реальностью.
• Работа с подсознанием по методу Джона Кехо.
• Работа с подсознанием по кабалистическим и суфийским технологиям.
• Работа с подсознанием с элементами учений К. Кастанеды.
Показать сообщения:    

Текущее время: 20-Сен 01:16

Часовой пояс: UTC - 1


Вы не можете начинать темы
Вы не можете отвечать на сообщения
Вы не можете редактировать свои сообщения
Вы не можете удалять свои сообщения
Вы не можете голосовать в опросах
Вы не можете прикреплять файлы к сообщениям
Вы не можете скачивать файлы

!ВНИМАНИЕ!
Сайт не предоставляет электронные версии произведений, а занимается лишь коллекционированием и каталогизацией ссылок, присылаемых и публикуемых на форуме нашими читателями. Если вы являетесь правообладателем какого-либо представленного материала и не желаете, чтобы ссылка на него находилась в нашем каталоге, свяжитесь с нами, и мы незамедлительно удалим ее. Файлы для обмена на трекере предоставлены пользователями сайта, и администрация не несет ответственности за их содержание. Просьба не заливать файлы, защищенные авторскими правами, а также файлы нелегального содержания!