Ивановский Торрент трекер
Яндекс.Погода
 

[Цитировать]
HUNTER

Улица Грин Долфин / Green Dolphin Street- Год выпуска: 1947
Страна: США
Жанр: мелодрама, приключения, драма
Продолжительность: 02:21:16
Перевод: Одноголосый закадровый — Алексей Яковлев
Оригинальная аудиодорожка: Английская
Субтитры: Английские-Режиссер: Виктор Савилл / Victor Saville
В ролях: Лана Тёрнер, Ван Хефлин, Донна Рид, Ричард Харт, Фрэнк Морган, Эдмунд Гвенн, Мэй Уитти, Реджинальд Оуэн, Глэдис Купер, Мойна МакГилл, Линда Кристиан, Жижи Перро, Берни Гозьер, Патрик Ахерн, Эдит Лесли-Описание:
Софи любит Эдмунда, но родители заставляют её выйти замуж за богатого Октавия, после чего Эдмунд покидает город. Спустя годы Эдмунд возвращается со своим сыном Уильямом. Дочь Софи Маргарита и Уильям влюбляются друг в друга. Сестра Маргариты Марианна тоже любит Уильяма, а плотник Тимоти тайно влюблен в Марианну. Тимоти убивает в драке человека, и Эдмунд помогает ему сбежать в Новую Зеландию. Случайно дезертировавший из флота Уильям также позорно сбегает в Новую Зеландию, где вместе с Тимоти начинает прибыльный бизнес. Однажды ночью Уильям пишет Октавию письмо с предложением руки и сердца его дочери, но, будучи пьяным, он путает имена сестер.-За появление перевода огромная благодарность: jasenka, елена 22, Магда, surzhoks, Бурый Иван, Lafajet, Ugo927, atomic dragonfly
Отдельное спасибо Ugo927 за помощь.
| | Сэмпл-Качество: WEB-DL 1080p (SbR)
Контейнер: MKV
Видео: AVC (x264), 1440x1080 (1.33:1), 23.976 fps, 13314 kbps
Аудио 1: Русский AC3 2.0, 48 kHz, 192 kbps
Аудио 2: Английский AC3 2.0, 48 kHz, 192 kbps

Скриншоты


MI

General
Unique ID : 234730182649976628379818168010339314808 (0xB0976385E323BC83876804E2E068EC78)
Complete name : Green.Dolphin.Street.1947.1080p.WEB-DL.DD2.0.H.264-SbR.mkv
Format : Matroska
Format version : Version 2
File size : 13.5 GiB
Duration : 2 h 21 min
Overall bit rate mode : Variable
Overall bit rate : 13.7 Mb/s
Movie name : Green Dolphin Street / Улица Грин Долфин (1947) – RuTracker
Encoded date : UTC 2017-09-30 07:30:19
Writing application : mkvmerge v15.0.0 ('Duel with the Devil') 64-bit
Writing library : libebml v1.3.5 + libmatroska v1.4.5
Cover : Yes
Attachments : cover.jpg
Video
ID : 1
Format : AVC
Format/Info : Advanced Video Codec
Format profile : High@L4
Format settings, CABAC : Yes
Format settings, ReFrames : 4 frames
Codec ID : V_MPEG4/ISO/AVC
Duration : 2 h 21 min
Bit rate mode : Variable
Bit rate : 13.3 Mb/s
Maximum bit rate : 15.0 Mb/s
Width : 1 440 pixels
Height : 1 080 pixels
Display aspect ratio : 4:3
Frame rate mode : Constant
Frame rate : 23.976 (24000/1001) FPS
Color space : YUV
Chroma subsampling : 4:2:0
Bit depth : 8 bits
Scan type : Progressive
Bits/(Pixel*Frame) : 0.357
Stream size : 13.1 GiB (97%)
Title : Green.Dolphin.Street.1947.1080p.WEB-DL.DD2.0.H.264-SbR
Writing library : x264 core 148 r2623 d5b2374
Encoding settings : cabac=1 / ref=4 / deblock=1:-1:-1 / analyse=0x3:0x133 / me=umh / subme=9 / psy=1 / psy_rd=1.00:0.15 / mixed_ref=1 / me_range=24 / chroma_me=1 / trellis=2 / 8x8dct=1 / cqm=0 / deadzone=21,11 / fast_pskip=1 / chroma_qp_offset=-3 / threads=34 / lookahead_threads=5 / sliced_threads=0 / nr=150 / decimate=1 / interlaced=0 / bluray_compat=0 / constrained_intra=0 / bframes=8 / b_pyramid=2 / b_adapt=2 / b_bias=0 / direct=3 / weightb=1 / open_gop=0 / weightp=2 / keyint=120 / keyint_min=61 / scenecut=0 / intra_refresh=0 / rc_lookahead=120 / rc=crf / mbtree=1 / crf=18.0 / qcomp=0.60 / qpmin=0 / qpmax=69 / qpstep=4 / vbv_maxrate=15000 / vbv_bufsize=31250 / crf_max=0.0 / nal_hrd=vbr / filler=0 / ip_ratio=1.40 / aq=3:1.00
Language : English
Default : Yes
Forced : No
Color range : Limited
Color primaries : BT.709
Transfer characteristics : BT.709
Matrix coefficients : BT.709
Audio #1
ID : 2
Format : AC-3
Format/Info : Audio Coding 3
Format settings, Endianness : Big
Codec ID : A_AC3
Duration : 2 h 21 min
Bit rate mode : Constant
Bit rate : 192 kb/s
Channel(s) : 2 channels
Channel positions : Front: L R
Sampling rate : 48.0 kHz
Frame rate : 31.250 FPS (1536 spf)
Bit depth : 16 bits
Compression mode : Lossy
Stream size : 194 MiB (1%)
Title : VO – Алексей Яковлев
Language : Russian
Service kind : Complete Main
Default : Yes
Forced : No
Audio #2
ID : 3
Format : AC-3
Format/Info : Audio Coding 3
Format settings, Endianness : Big
Codec ID : A_AC3
Duration : 2 h 21 min
Bit rate mode : Constant
Bit rate : 192 kb/s
Channel(s) : 2 channels
Channel positions : Front: L R
Sampling rate : 48.0 kHz
Frame rate : 31.250 FPS (1536 spf)
Bit depth : 16 bits
Compression mode : Lossy
Stream size : 194 MiB (1%)
Title : Original
Language : English
Service kind : Complete Main
Default : No
Forced : No
Text #1
ID : 4
Format : UTF-8
Codec ID : S_TEXT/UTF8
Codec ID/Info : UTF-8 Plain Text
Duration : 2 h 17 min
Bit rate : 62 b/s
Count of elements : 1996
Stream size : 62.8 KiB (0%)
Language : English
Default : No
Forced : No
Text #2
ID : 5
Format : UTF-8
Codec ID : S_TEXT/UTF8
Codec ID/Info : UTF-8 Plain Text
Duration : 2 h 18 min
Bit rate : 64 b/s
Count of elements : 2103
Stream size : 65.5 KiB (0%)
Title : SDH
Language : English
Default : No
Forced : No


Показать сообщения:    

Текущее время: 22-Апр 22:23

Часовой пояс: UTC ± 0


Вы не можете начинать темы
Вы не можете отвечать на сообщения
Вы не можете редактировать свои сообщения
Вы не можете удалять свои сообщения
Вы не можете голосовать в опросах
Вы не можете прикреплять файлы к сообщениям
Вы не можете скачивать файлы

!ВНИМАНИЕ!
Сайт не предоставляет электронные версии произведений, а занимается лишь коллекционированием и каталогизацией ссылок, присылаемых и публикуемых на форуме нашими читателями. Если вы являетесь правообладателем какого-либо представленного материала и не желаете, чтобы ссылка на него находилась в нашем каталоге, свяжитесь с нами, и мы незамедлительно удалим ее. Файлы для обмена на трекере предоставлены пользователями сайта, и администрация не несет ответственности за их содержание. Просьба не заливать файлы, защищенные авторскими правами, а также файлы нелегального содержания!