Важное объявление!
У Нас Все раздачи мультитрекерные, при нуле пиров в релизах, можете смело вставать на закачку!
 
Автор Сообщение

HUNTER

Стаж:
4 года 5 месяцев
Сообщений:
60866

Репутация: 101

[+] [-]
Вне форума [Профиль] [ЛС]

Various Artists - Hardcore Underground Vol.3
Жанр: UK Hardcore
Страна-производитель диска: UK
Год издания: 2009
Издатель (лейбл): Hardcore Underground
Номер по каталогу: HUCD002
Аудиокодек: FLAC (*.flac)
Тип рипа: image+.cue
Битрейт аудио: lossless
Продолжительность: 4:48:46
Источник (релизер): Диск из личной коллекции
Наличие сканов в содержимом раздачи: да
Треклист:
CD1: Mixed By Brisk & Ham (1:13:12)
01. Darwin Feat. A. Johnson - Connected
02. Force 10 Feat. Marian Dacal - Taking Me Higher (Ruffage Remix)
03. Ham - Scream Your Heart Out
04. Clodhopper - Mystery
05. Jervis & Meat Feat. Donna - The Dawn
06. Wink - In a Spin (Kurt Remix)
07. Darwin - Without Fear
08. Vagabond Feat. Wotsee & Tais - Love Can Be Real
09. Brisk & Vagabond - My Obsession
10. Fracus & Sam Honey- What It Feels Like
11. Samba D Feat. Ellie Jay - Two Of A Kind
12. Brisk & Stomrtrooper - Moscow Mule
13. Darwin & Obie - Musical Endeavour
14. Brisk & Vagabond - Get It On
15. Harry H - Here We Go
16. Brisk & Ham - F**k With My DJ
17. Al Twisted & JFX - Belgian Waffle (Al Twisted & Mikk Remix)
18. Brisk & Vagabond - Club F**ker
CD2: Mixed By Marc Smith & Al Storm (1:04:50)
01. DJ Marc Smith - Hardcore RU Ready
02. Al Storm Feat Amy (VIP Mix) - Surrender (Exclusive Mix)
03. Joey Riot & Obie - I Require Filth
04. Al Storm & Euphony Feat Danielle - Long Time (Cube Hard Mix)
05. DJ Marc Smith - Can you feel it
06. Seduction & Al Storm - The Beat Kicks (Al~Rs VIP mix)
07. Darwin & Rampant Feat. Ant Jon - No More (Marc Smith & Gammer Remix)
08. Al Storm & Orbit 1 - Twisty
09. Stormtrooper & Helical - Lime Code
10. DJ Marc Smith & Al Storm - Can You Feel The Pace
11. Jamie Ritmen - Feel The Pulse
12. Ultravibes - We Are The Bass
13. Skinny & Bundy - Lets Get Dirty
14. Scott Brown - Turn up the Music (Marc Smith & Al Storms 'Live' Remix)
15. S3RL - Dealer
16. Al Storm & Euphony - Dirty Disko (Exclusive HU3 Album Mix)
17. DJ Marc Smith & Darwin - 1 More Time (Exclusive HU3 album VIP Mix)
18. Kutski & Al Storm - Grudge (Hardcore Mix)
19. Darwin & Obie - Kraze
CD3: Mixed By Fracus & Stormtrooper (1:13:55)
01. Fracus & Darwin - Last Forever (Cube::Hard Remix)
02. Deeper Territory - Calm Me Down
03. DeadBeats - The Condition
04. Fracus - Gettin' Rolled Out
05. Stormtrooper & Druid - Electrofied (Kurt Remix)
06. Barley - Rock The Beat
07. Flyin' & Sparky Feat. Charm - You Mean The World To Me
08. Fracus & Sam Honey - Every Word You Say
09. Darwin - Kickin Stuff
10. GEOS Crew - Living The Dream
11. Robbie Long & Stormtrooper - Stick Em (Ethos Remix)
12. Silver & The Acolyte - Smack! (Orbit1 Remix)
13. Al Storm - Bustin' Jamz
14. Clodhopper & Sc@r - Subsonic
15. Brisk & Stormtrooper - Insomniak 2008
16. Robbie Long & Stormtrooper - Nastytime (Stormtrooper Remix)
17. D-Lyte & Orbit1 - Jibber Jabber
18. Entity & Darwin - Moving Over
19. Petruccio & Modulate - R U Ready?
20. Ephexis & Solution - Pressure Point
CD4: Mixed By Darwin, CLSM & Nu Foundation (1:16:49)
01. CLSM - Pressure Rush
02. Cube::Hard - In the Moment
03. Kid Alaska - Lost Direction (Darwin remix)
04. Entity - Stargazer (Reese remix)
05. CLSM & Entity - Rudloe (Cold War City)
06. Nu Foundation - Wizzy
07. Darwin & Entity feat Ant Johnson - Given a Vision
08. Dionne - Different Place
09. Helikaon & Erik de Grijze feat Ephexis - Exploder
10. Cube::Hard & Chwhynny - Out Of The Light, Into The Fire
11. Joshka - Cascading Emotions 2008
12. Slippery Disco - Feeling High
13. Michael Mansion - Lift Me Up (Nu Foundation Remix)
14. Phenex feat Le Kat - Angels in my Head
15. In-Effect & Buzzy - Execute
16. Wink - Spaced (Al Storm Remix)
17. Michael Mansion - Let Me In (Darwin Remix)
18. Nu Foundation - Take Me Over

-

Лог создания рипа CD1

Exact Audio Copy V0.99 prebeta 4 from 23. January 2008
Отчёт EAC об извлечении, выполненном 22. февраля 2013, 22:09
Various / Hardcore Underground 3 (CD1) - Brisk & Ham
Дисковод: Optiarc DVD RW AD-7261S Adapter: 1 ID: 1
Режим чтения : ДостоверностьИспользование точного потока : ДаОтключение кэша аудио : ДаИспользование указателей C2 : Нет
Коррекция смещения при чтении : 48Способность читать области Lead-in и Lead-out : НетЗаполнение пропущенных сэмплов тишиной : ДаУдаление блоков с тишиной в начале и конце : НетПри вычислениях CRC использовались нулевые сэмплы : ДаИнтерфейс : Встроенный Win32-интерфейс для Win NT/2000
Выходной формат : Внутренние WAV-операцииФормат сэмплов : 44.100 Гц; 16 бит; стерео
TOC извлечённого CD
Трек | Старт | Длительность | Начальный сектор | Конечный сектор --------------------------------------------------------------------- 1 | 0:00.00 | 3:56.01 | 0 | 17700 2 | 3:56.01 | 4:47.36 | 17701 | 39261 3 | 8:43.37 | 3:28.26 | 39262 | 54887 4 | 12:11.63 | 3:20.33 | 54888 | 69920 5 | 15:32.21 | 4:13.14 | 69921 | 88909 6 | 19:45.35 | 5:05.70 | 88910 | 111854 7 | 24:51.30 | 5:03.22 | 111855 | 134601 8 | 29:54.52 | 3:21.57 | 134602 | 149733 9 | 33:16.34 | 4:27.52 | 149734 | 169810 10 | 37:44.11 | 4:23.55 | 169811 | 189590 11 | 42:07.66 | 4:02.47 | 189591 | 207787 12 | 46:10.38 | 4:02.49 | 207788 | 225986 13 | 50:13.12 | 4:40.65 | 225987 | 247051 14 | 54:54.02 | 3:32.23 | 247052 | 262974 15 | 58:26.25 | 4:42.15 | 262975 | 284139 16 | 63:08.40 | 2:06.45 | 284140 | 293634 17 | 65:15.10 | 3:52.06 | 293635 | 311040 18 | 69:07.16 | 4:04.45 | 311041 | 329385
Характеристики диапазона извлечения и сообщения об ошибках
Выбранный диапазон
Имя файла C:\Users\Meijin\Desktop\Новая папка (4)\Various - Hardcore Underground 3 (CD1) - Brisk & Ham.wav
Пиковый уровень 98.8 % Качество диапазона 99.9 % CRC теста 46BA7D57 CRC копии 46BA7D57 Копирование... OK
Ошибок не произошло
AccurateRip: сводка
Трек 1 точное извлечение (доверие 3) [FDF02C36]Трек 2 точное извлечение (доверие 3) [A9DCE233]Трек 3 точное извлечение (доверие 3) [77D68D09]Трек 4 точное извлечение (доверие 3) [AC166CAB]Трек 5 точное извлечение (доверие 3) [10661F42]Трек 6 точное извлечение (доверие 3) [865496EA]Трек 7 точное извлечение (доверие 3) [170F60A6]Трек 8 точное извлечение (доверие 3) [1D23D8BD]Трек 9 точное извлечение (доверие 3) [1E6BB014]Трек 10 точное извлечение (доверие 3) [4D58072E]Трек 11 точное извлечение (доверие 3) [7C424B32]Трек 12 точное извлечение (доверие 3) [4A5ED155]Трек 13 точность не определена (достоверность 3) [3A24782D], AccurateRip вернул [0A99466A]Трек 14 точное извлечение (доверие 3) [59CE4E2D]Трек 15 точное извлечение (доверие 3) [6442A20D]Трек 16 точное извлечение (доверие 3) [79DB9940]Трек 17 точное извлечение (доверие 3) [C2600AD4]Трек 18 точное извлечение (доверие 3) [8BC7C074]
17 трек(и) скопированы точно 1 трек(и) не удалось проверить на точность
Некоторые треки не прошли проверку на точность
Конец отчёта

Лог создания рипа CD2

Exact Audio Copy V0.99 prebeta 4 from 23. January 2008
Отчёт EAC об извлечении, выполненном 22. февраля 2013, 22:44
Various / Hardcore Underground 3 (CD2) - Marc Smith Al Storm
Дисковод: Optiarc DVD RW AD-7261S Adapter: 1 ID: 1
Режим чтения : ДостоверностьИспользование точного потока : ДаОтключение кэша аудио : ДаИспользование указателей C2 : Нет
Коррекция смещения при чтении : 48Способность читать области Lead-in и Lead-out : НетЗаполнение пропущенных сэмплов тишиной : ДаУдаление блоков с тишиной в начале и конце : НетПри вычислениях CRC использовались нулевые сэмплы : ДаИнтерфейс : Встроенный Win32-интерфейс для Win NT/2000
Выходной формат : Внутренние WAV-операцииФормат сэмплов : 44.100 Гц; 16 бит; стерео
TOC извлечённого CD
Трек | Старт | Длительность | Начальный сектор | Конечный сектор --------------------------------------------------------------------- 1 | 0:00.00 | 4:10.65 | 0 | 18814 2 | 4:10.65 | 4:56.47 | 18815 | 41061 3 | 9:07.37 | 3:08.57 | 41062 | 55218 4 | 12:16.19 | 2:20.17 | 55219 | 65735 5 | 14:36.36 | 4:12.09 | 65736 | 84644 6 | 18:48.45 | 3:00.50 | 84645 | 98194 7 | 21:49.20 | 4:37.57 | 98195 | 119026 8 | 26:27.02 | 2:52.34 | 119027 | 131960 9 | 29:19.36 | 2:36.43 | 131961 | 143703 10 | 31:56.04 | 3:41.09 | 143704 | 160287 11 | 35:37.13 | 2:21.41 | 160288 | 170903 12 | 37:58.54 | 3:30.24 | 170904 | 186677 13 | 41:29.03 | 4:49.67 | 186678 | 208419 14 | 46:18.70 | 4:29.50 | 208420 | 228644 15 | 50:48.45 | 3:14.12 | 228645 | 243206 16 | 54:02.57 | 2:41.60 | 243207 | 255341 17 | 56:44.42 | 3:07.31 | 255342 | 269397 18 | 59:51.73 | 2:20.17 | 269398 | 279914 19 | 62:12.15 | 2:37.59 | 279915 | 291748
Характеристики диапазона извлечения и сообщения об ошибках
Выбранный диапазон
Имя файла C:\Users\Meijin\Desktop\Новая папка (4)\Various - Hardcore Underground 3 (CD2) - Marc Smith Al Storm.wav
Пиковый уровень 99.1 % Качество диапазона 100.0 % CRC теста 9D736655 CRC копии 9D736655 Копирование... OK
Ошибок не произошло
AccurateRip: сводка
Трек 1 точное извлечение (доверие 3) [20C5EAE7]Трек 2 точное извлечение (доверие 3) [95C2138C]Трек 3 точное извлечение (доверие 3) [C540A7AA]Трек 4 точное извлечение (доверие 3) [02F6ABC1]Трек 5 точное извлечение (доверие 3) [1222C872]Трек 6 точное извлечение (доверие 3) [496F3CA6]Трек 7 точное извлечение (доверие 3) [C79984BC]Трек 8 точное извлечение (доверие 3) [F268E624]Трек 9 точное извлечение (доверие 3) [895615DB]Трек 10 точное извлечение (доверие 3) [D233B26E]Трек 11 точное извлечение (доверие 3) [13A5344A]Трек 12 точное извлечение (доверие 3) [10556311]Трек 13 точное извлечение (доверие 3) [5A288D90]Трек 14 точное извлечение (доверие 3) [6689E72B]Трек 15 точное извлечение (доверие 3) [5D22D3C1]Трек 16 точное извлечение (доверие 3) [6A91544F]Трек 17 точное извлечение (доверие 3) [D0B3404B]Трек 18 точное извлечение (доверие 3) [B187F8AC]Трек 19 точное извлечение (доверие 3) [81C231C5]
Все треки извлечены точно
Конец отчёта

Лог создания рипа CD3

Exact Audio Copy V0.99 prebeta 4 from 23. January 2008
Отчёт EAC об извлечении, выполненном 22. февраля 2013, 23:20
Various / Hardcore Underground 3 (CD3) - Fracus Stormtrooper
Дисковод: Optiarc DVD RW AD-7261S Adapter: 1 ID: 1
Режим чтения : ДостоверностьИспользование точного потока : ДаОтключение кэша аудио : ДаИспользование указателей C2 : Нет
Коррекция смещения при чтении : 48Способность читать области Lead-in и Lead-out : НетЗаполнение пропущенных сэмплов тишиной : ДаУдаление блоков с тишиной в начале и конце : НетПри вычислениях CRC использовались нулевые сэмплы : ДаИнтерфейс : Встроенный Win32-интерфейс для Win NT/2000
Выходной формат : Внутренние WAV-операцииФормат сэмплов : 44.100 Гц; 16 бит; стерео
TOC извлечённого CD
Трек | Старт | Длительность | Начальный сектор | Конечный сектор --------------------------------------------------------------------- 1 | 0:00.00 | 5:16.14 | 0 | 23713 2 | 5:16.14 | 2:11.49 | 23714 | 33587 3 | 7:27.63 | 2:55.41 | 33588 | 46753 4 | 10:23.29 | 2:55.40 | 46754 | 59918 5 | 13:18.69 | 2:50.05 | 59919 | 72673 6 | 16:08.74 | 3:17.36 | 72674 | 87484 7 | 19:26.35 | 4:23.24 | 87485 | 107233 8 | 23:49.59 | 4:45.19 | 107234 | 128627 9 | 28:35.03 | 4:01.30 | 128628 | 146732 10 | 32:36.33 | 4:01.28 | 146733 | 164835 11 | 36:37.61 | 4:04.16 | 164836 | 183151 12 | 40:42.02 | 2:55.33 | 183152 | 196309 13 | 43:37.35 | 3:50.30 | 196310 | 213589 14 | 47:27.65 | 4:34.22 | 213590 | 234161 15 | 52:02.12 | 4:23.23 | 234162 | 253909 16 | 56:25.35 | 4:45.20 | 253910 | 275304 17 | 61:10.55 | 2:11.49 | 275305 | 285178 18 | 63:22.29 | 3:27.06 | 285179 | 300709 19 | 66:49.35 | 3:33.71 | 300710 | 316755 20 | 70:23.31 | 3:32.02 | 316756 | 332657
Характеристики диапазона извлечения и сообщения об ошибках
Выбранный диапазон
Имя файла C:\Users\Meijin\Desktop\Новая папка (4)\Various - Hardcore Underground 3 (CD3) - Fracus Stormtrooper.wav
Пиковый уровень 99.1 % Качество диапазона 100.0 % CRC теста 1028E208 CRC копии 1028E208 Копирование... OK
Ошибок не произошло
AccurateRip: сводка
Трек 1 точное извлечение (доверие 3) [31E8B05A]Трек 2 точное извлечение (доверие 3) [9854CFA7]Трек 3 точное извлечение (доверие 3) [F5DD46F6]Трек 4 точное извлечение (доверие 3) [6D96945C]Трек 5 точное извлечение (доверие 3) [750FA0EF]Трек 6 точное извлечение (доверие 3) [DCA63DE2]Трек 7 точное извлечение (доверие 3) [689DC821]Трек 8 точное извлечение (доверие 3) [5B6563C6]Трек 9 точное извлечение (доверие 3) [097BC044]Трек 10 точное извлечение (доверие 3) [0353AD35]Трек 11 точное извлечение (доверие 3) [D2DBA62B]Трек 12 точное извлечение (доверие 3) [4242B880]Трек 13 точное извлечение (доверие 3) [F765B8F7]Трек 14 точное извлечение (доверие 3) [ABB4228E]Трек 15 точное извлечение (доверие 3) [028401C9]Трек 16 точное извлечение (доверие 3) [D3902908]Трек 17 точное извлечение (доверие 3) [3DEB813B]Трек 18 точное извлечение (доверие 3) [055FDA77]Трек 19 точное извлечение (доверие 3) [2904BFF4]Трек 20 точное извлечение (доверие 3) [D96DA3EA]
Все треки извлечены точно
Конец отчёта

Лог создания рипа CD4

Exact Audio Copy V0.99 prebeta 4 from 23. January 2008
Отчёт EAC об извлечении, выполненном 22. февраля 2013, 23:57
Various / Hardcore Underground 3 (CD4) - Darwin, CLSM Nu Foundation
Дисковод: Optiarc DVD RW AD-7261S Adapter: 1 ID: 1
Режим чтения : ДостоверностьИспользование точного потока : ДаОтключение кэша аудио : ДаИспользование указателей C2 : Нет
Коррекция смещения при чтении : 48Способность читать области Lead-in и Lead-out : НетЗаполнение пропущенных сэмплов тишиной : ДаУдаление блоков с тишиной в начале и конце : НетПри вычислениях CRC использовались нулевые сэмплы : ДаИнтерфейс : Встроенный Win32-интерфейс для Win NT/2000
Выходной формат : Внутренние WAV-операцииФормат сэмплов : 44.100 Гц; 16 бит; стерео
TOC извлечённого CD
Трек | Старт | Длительность | Начальный сектор | Конечный сектор --------------------------------------------------------------------- 1 | 0:00.00 | 4:53.32 | 0 | 22006 2 | 4:53.32 | 4:07.00 | 22007 | 40531 3 | 9:00.32 | 2:51.15 | 40532 | 53371 4 | 11:51.47 | 3:43.66 | 53372 | 70162 5 | 15:35.38 | 4:03.42 | 70163 | 88429 6 | 19:39.05 | 2:54.34 | 88430 | 101513 7 | 22:33.39 | 4:46.24 | 101514 | 122987 8 | 27:19.63 | 5:21.57 | 122988 | 147119 9 | 32:41.45 | 4:10.66 | 147120 | 165935 10 | 36:52.36 | 4:10.66 | 165936 | 184751 11 | 41:03.27 | 4:55.64 | 184752 | 206940 12 | 45:59.16 | 5:38.11 | 206941 | 232301 13 | 51:37.27 | 3:59.72 | 232302 | 250298 14 | 55:37.24 | 4:21.58 | 250299 | 269931 15 | 59:59.07 | 4:01.24 | 269932 | 288030 16 | 64:00.31 | 5:19.03 | 288031 | 311958 17 | 69:19.34 | 3:08.58 | 311959 | 326116 18 | 72:28.17 | 4:20.57 | 326117 | 345673
Характеристики диапазона извлечения и сообщения об ошибках
Выбранный диапазон
Имя файла C:\Users\Meijin\Desktop\Новая папка (4)\Various - Hardcore Underground 3 (CD4) - Darwin, CLSM Nu Foundation.wav
Пиковый уровень 99.1 % Качество диапазона 100.0 % CRC теста A0B65714 CRC копии A0B65714 Копирование... OK
Ошибок не произошло
AccurateRip: сводка
Трек 1 точное извлечение (доверие 3) [9EF131EB]Трек 2 точное извлечение (доверие 3) [9732AE74]Трек 3 точное извлечение (доверие 3) [FFCE83ED]Трек 4 точное извлечение (доверие 3) [864259B2]Трек 5 точное извлечение (доверие 3) [CBED6A24]Трек 6 точное извлечение (доверие 3) [1DB5FFF5]Трек 7 точное извлечение (доверие 3) [EDD8BEFF]Трек 8 точное извлечение (доверие 3) [0F73D3B6]Трек 9 точное извлечение (доверие 3) [6D8700FB]Трек 10 точное извлечение (доверие 3) [4AD4A769]Трек 11 точное извлечение (доверие 3) [5161FD0C]Трек 12 точное извлечение (доверие 3) [ECA6CAAE]Трек 13 точное извлечение (доверие 3) [37A3A179]Трек 14 точное извлечение (доверие 3) [4537561D]Трек 15 точное извлечение (доверие 3) [0453B3B6]Трек 16 точное извлечение (доверие 3) [AB5FA8F6]Трек 17 точное извлечение (доверие 3) [D968F2B6]Трек 18 точное извлечение (доверие 3) [B7E0636D]
Все треки извлечены точно
Конец отчёта

_________________
Показать сообщения:    

Текущее время: Сегодня 11:05

Часовой пояс: GMT



Вы не можете начинать темы
Вы не можете отвечать на сообщения
Вы не можете редактировать свои сообщения
Вы не можете удалять свои сообщения
Вы не можете голосовать в опросах
Вы не можете прикреплять файлы к сообщениям
Вы не можете скачивать файлы
Наши партнеры: интернет магазин Ивановского трикотажа textilla.ru