Ивановский Торрент трекер
Яндекс.Погода
 

[Цитировать]
HUNTER

VA - Hardcore Underground 5
Жанр: UK Hardcore
Страна-производитель диска: UK
Год издания: 2011
Издатель (лейбл): Hardcore Underground
Номер по каталогу: HUCD005
Аудиокодек: FLAC (*.flac)
Тип рипа: image+.cue
Битрейт аудио: lossless
Продолжительность: 5:02:50
Источник (релизер): Диск из личной коллекции
Наличие сканов в содержимом раздачи: да
Треклист:
CD1: Al Storm Vs. Technikore (1:16:34)
01. CLSM Feat. Lisa Abbott – Time Bomb (Al Storm Remix) (3:12)02. Technikore Feat. Jenny J – Lights Down Low (2:32)03. Al Storm, Technikore & JTS – Sheltered (2:43)04. Sy & Unknown – Hardcore Style (1:15)05. Scott Brown & Al Storm – All About Evolution (3:24)06. Sy & Technikore – The City Is Mine (3:09)07. Black & White Vs. Intraspekt & Outsider – Get Ya Hands Up! (1:47)08. Unique – With Or Without You (2:09)09. Technikore, JTS, Wain Johnstone & Kato – Supersonik (2:08)10. Al Storm Feat. Taya – So Much Stronger (2:58)11. Al Storm – Euphoria (3:12)12. Technikore & JTS Feat. Alan Booth – We'll Run Away (4:14)13. Fracus & Darwin Feat. Lisa Abbott – Falling Out Of Love (3:23)14. Al Storm & MOB – Poltergeist (1:55)15. Breeze & Styles – Feel The Power (Technikore Remix) (3:36)16. Al Storm & Euphony Feat. Vicky Fee – Give A Little Bit Of Love (3:11)17. Technikore, Al Storm & JTS – This Is How It's Done (2:17)18. Technikore & Minty Feat. Nathalie – Betrayed (Winter Stayed) (4:13)19. Sy & Technikore – The Fly (VIP Mix) (2:28)20. Dougal & Gammer – Al Storm's Essential Mega-Muffin (Feat. MC Whizzkid) (3:27)21. Al Storm Vs. Plus System Feat. Taya – Run To Me (2:20)22. Fracus & Darwin – Step Down (1:57)23. Technikore – Somebody (2:37)24. Sy & Al Storm Feat. Meri Everitt – Lonely (Abused Mix) (2:31)25. Al Storm – Hardcore 2 The Bone! (2:09)26. Darren Styles – Rock Me Out (Al Storm & Technikore's Chopper Mix) (2:52)27. Sy & Technikore – The Nerve Centre (1:58)28. Technikore & JTS – Payback (2:46)

CD2: Fracus & Darwin Vs. Brisk (1:14:49)

01. Entity & Chwhynny – Can You Hear The Silence (2:05)
02. Fracus & Darwin Vs. CLSM Feat. Indie-Go Blue – Chime (2:43)
03. Sam B – Burning Up (2:10)
04. Fracus & Darwin – Ganja Crew (1:27)
05. Fracus & Darwin Feat. Becca Hossany – Got The Rhythm (4:00)
06. JAKAZiD – Movin' To This (4:43)
07. Brisk & Darwin Vs. DMO – My Heartbeat (4:11)
08. Fracus – Madjik (3:32)
09. Fracus & Darwin Feat. Becca Hossany – Hypnotic (2:54)
10. Brooklyn & Dan Edge – Lose You Again (2:10)
11. M-Project – Route 143 (TANUKI Remix) (2:08)
12. Buzz & Stevie D Feat. Jessica Palmer (2) – Goodbye (Fracus & Darwin Remix) (4:28)
13. Daniel Seven – Blessed Loneliness (2:08)
14. Brisk & Vagabond – Shouting Out (Fracus & Darwin Remix) (1:58)
15. Bishop & Tom Revolution – The New Style (1:13)
16. Styles & Breeze Feat. Recon – Love Sick Crazy (Fracus & Darwin Remix) (3:02)
17. Brisk & Darwin Feat. Taya – Life's A Journey (4:09)
18. Brisk & Fracus – Falling Into You (3:02)
19. Brisk & Darwin – Break The Concrete (2:40)
20. Brisk & Fracus – Radio Rockin' 2011 (3:16)
21. Brisk & Ham – Sex Toys (1:57)
22. Double Dutch – Bulletproof (2:27)
23. Paul Elstak Feat. Beatstream & Radiate – I'm Not An Addict (Brisk Remix) (3:36)
24. Art Of Fighters – God's Fury (1:50)
25. Neophyte & Tha Playah – Snitcher! (2:06)
26. Kasparov – Pitch Black (Kasparov Remix) (4:40)

CD3: Slipmatt Vs. Entit (1:17:29)

01. Gavin G – Sky (3:05)
02. StrifeII – Petrichor (1:27)
03. Shimamura – Energize (Renegade Slammer) (2:54)
04. Fracus & Darwin – No Disguise (2:10)
05. Kingsize & Eternity – A Touch Of Magic (Uplift & Stargazer 2011 Remix) (3:16)
06. CLSM – I Will Wait (Fracus & Darwin Remix) (2:54)
07. Samba D – Summer 3:44
08. Chris Ross & Audioshift – You're Driving Me Crazy (2:54)
09. Entity & Sam B – Can't Get Enough (2:54)
10. Darwin & Koopa Vs. Phenex Feat. Le Kat – Shape Of Love (2:54)
11. Sc@r – Acid Porn Monkey (3:05)
12. Slipmatt & Darwin – Only For Me (2:35)
13. Fracus & Darwin Feat. Cat Knight – Love Obsession (SMD Remix) (3:05)
14. Al Storm & Acolyte, The Feat. Lisa Abbott – Falling Through (CLSM Remix) (3:05)
15. TANUKI – Hollow (3:38)
16. Dain-Ja Feat. Vicky Fee – Feel So High (No Left Turn Remix) (2:14)
17. Fracus & In Effect Feat. Sam Honey – Dream Of The Moment (2:31)
18. Raving Donkey – Irish Sunrise (3:16)
19. Firefly – Sunflower (Sam B Remix) (2:56)
20. Kevin Energy – Waves Of Desire (Karl Future's Hardcore Junglist Remix) (3:41)
21. Fracus & Tom Revolution – Wake Up Call (2:55)
22. Ultravibes – Dust (Pulse Remix) (2:09)
23. Entity – Did You See It (3:25)
24. Ham – One & Only (2:29)
25. Entity & Darwin Feat. MC Sharkey – 21 Days (3:06)
26. DJ Demand – Stay With Me (Darwin Remix) (2:18)
27. Brisk & Darwin – Every Time (‘90s Revival Mix) (2:36)

CD4: Douglas Vs. A.B (1:13:58)

01. A.B & Solution – NanEater (HU Intro Mix Feat. Dark Angel) (3:52)
02. A.B & SynthWulf – Genre This! (2:27)
03. Haywire – Weekend (2:27)
04. Pinnacle & Ben Av-It – Future Skool (2:18)
05. A.B – Stay With Me (Greg Peaks Remix) (2:48)
06. Darts Feat. Kelly C – Show Me Love (Deeper Territory Remix) (1:45)
07. Endemic – The Prophet (1:29)
08. Kevin Energy & Rik Arkitech Feat. Rhona – State Of Life (4:33)
09. Douglas Feat. Dionne – Air (3:18)
10. X-Cyte Feat. Freda – Without You (Cube::Hard Remix) (3:12)
11. Rampant, Obie & Darwin – Beyond Us (Douglas Remix) (2:53)
12. Cube::Hard & Douglas – Codex (3:22)
13. Kevin Energy & A.B – Sin 4 Me (A.B's Trouse Remix) (4:08)
14. Lost Soul – Warlock (Cube::Hard Remix) (2:29)
15. Endemic – Investatron 3000 (2:53)
16. Firefarm & Kevin Energy – Beaker Face (3:28)
17. Transcend – Domination (2:49)
18. Douglas & Remane – Disorder (4:00)
19. Transcend – Zero-G Fire (2:32)
20. Andy Dee – Solas An Lae (Douglas HU5 Remix) (4:45)
21. A.B – Escapia (1:53)
22. Rik Arkitech & Douglas – False Religion (3:13)
23. Kevin Energy & A.B – Reform Your Freeform (3:32)
24. A.B & Douglas – Fin (3:38)

-

Лог создания рипа CD1

Exact Audio Copy V0.99 prebeta 4 from 23. January 2008
Отчёт EAC об извлечении, выполненном 6. мая 2013, 18:15
Various / Hardcore Underground 5 (CD1) - Mixed By Al Storm Vs. Technikore
Дисковод: Optiarc DVD RW AD-7261S Adapter: 1 ID: 1
Режим чтения : ДостоверностьИспользование точного потока : ДаОтключение кэша аудио : ДаИспользование указателей C2 : Нет
Коррекция смещения при чтении : 48Способность читать области Lead-in и Lead-out : НетЗаполнение пропущенных сэмплов тишиной : ДаУдаление блоков с тишиной в начале и конце : НетПри вычислениях CRC использовались нулевые сэмплы : ДаИнтерфейс : Встроенный Win32-интерфейс для Win NT/2000
Выходной формат : Внутренние WAV-операцииФормат сэмплов : 44.100 Гц; 16 бит; стерео
TOC извлечённого CD
Трек | Старт | Длительность | Начальный сектор | Конечный сектор --------------------------------------------------------------------- 1 | 0:00.00 | 3:12.67 | 0 | 14466 2 | 3:12.67 | 2:32.26 | 14467 | 25892 3 | 5:45.18 | 2:43.09 | 25893 | 38126 4 | 8:28.27 | 1:15.24 | 38127 | 43775 5 | 9:43.51 | 3:24.56 | 43776 | 59131 6 | 13:08.32 | 3:09.09 | 59132 | 73315 7 | 16:17.41 | 1:47.61 | 73316 | 81401 8 | 18:05.27 | 2:09.33 | 81402 | 91109 9 | 20:14.60 | 2:08.07 | 91110 | 100716 10 | 22:22.67 | 2:58.03 | 100717 | 114069 11 | 25:20.70 | 3:12.21 | 114070 | 128490 12 | 28:33.16 | 4:14.26 | 128491 | 147566 13 | 32:47.42 | 3:23.43 | 147567 | 162834 14 | 36:11.10 | 1:55.15 | 162835 | 171474 15 | 38:06.25 | 3:36.36 | 171475 | 187710 16 | 41:42.61 | 3:11.27 | 187711 | 202062 17 | 44:54.13 | 2:17.45 | 202063 | 212382 18 | 47:11.58 | 4:13.38 | 212383 | 231395 19 | 51:25.21 | 2:28.22 | 231396 | 242517 20 | 53:53.43 | 3:27.48 | 242518 | 258090 21 | 57:21.16 | 2:20.16 | 258091 | 268606 22 | 59:41.32 | 1:57.23 | 268607 | 277404 23 | 61:38.55 | 2:37.44 | 277405 | 289223 24 | 64:16.24 | 2:31.10 | 289224 | 300558 25 | 66:47.34 | 2:09.34 | 300559 | 310267 26 | 68:56.68 | 2:52.30 | 310268 | 323197 27 | 71:49.23 | 1:58.60 | 323198 | 332107 28 | 73:48.08 | 2:46.16 | 332108 | 344573
Характеристики диапазона извлечения и сообщения об ошибках
Выбранный диапазон
Имя файла C:\Users\Meijin\Desktop\Новая папка (4)\Various - Hardcore Underground 5 (CD1) - Mixed By Al Storm Vs. Technikore.wav
Пиковый уровень 100.0 % Качество диапазона 100.0 % CRC теста 4B1FBDB5 CRC копии 4B1FBDB5 Копирование... OK
Ошибок не произошло
AccurateRip: сводка
Трек 1 нет в базе данныхТрек 2 нет в базе данныхТрек 3 нет в базе данныхТрек 4 нет в базе данныхТрек 5 нет в базе данныхТрек 6 нет в базе данныхТрек 7 нет в базе данныхТрек 8 нет в базе данныхТрек 9 нет в базе данныхТрек 10 нет в базе данныхТрек 11 нет в базе данныхТрек 12 нет в базе данныхТрек 13 нет в базе данныхТрек 14 нет в базе данныхТрек 15 нет в базе данныхТрек 16 нет в базе данныхТрек 17 нет в базе данныхТрек 18 нет в базе данныхТрек 19 нет в базе данныхТрек 20 нет в базе данныхТрек 21 нет в базе данныхТрек 22 нет в базе данныхТрек 23 нет в базе данныхТрек 24 нет в базе данныхТрек 25 нет в базе данныхТрек 26 нет в базе данныхТрек 27 нет в базе данныхТрек 28 нет в базе данных
Ни одного трека нет в базе AccurateRip
Конец отчёта

Лог создания рипа CD2

Exact Audio Copy V0.99 prebeta 4 from 23. January 2008
Отчёт EAC об извлечении, выполненном 6. мая 2013, 19:03
Various / Hardcore Underground 5 (CD2) - Mixed By Fracus & Darwin Vs. Brisk
Дисковод: Optiarc DVD RW AD-7261S Adapter: 1 ID: 1
Режим чтения : ДостоверностьИспользование точного потока : ДаОтключение кэша аудио : ДаИспользование указателей C2 : Нет
Коррекция смещения при чтении : 48Способность читать области Lead-in и Lead-out : НетЗаполнение пропущенных сэмплов тишиной : ДаУдаление блоков с тишиной в начале и конце : НетПри вычислениях CRC использовались нулевые сэмплы : ДаИнтерфейс : Встроенный Win32-интерфейс для Win NT/2000
Выходной формат : Внутренние WAV-операцииФормат сэмплов : 44.100 Гц; 16 бит; стерео
TOC извлечённого CD
Трек | Старт | Длительность | Начальный сектор | Конечный сектор --------------------------------------------------------------------- 1 | 0:00.00 | 2:05.42 | 0 | 9416 2 | 2:05.42 | 2:43.47 | 9417 | 21688 3 | 4:49.14 | 2:10.68 | 21689 | 31506 4 | 7:00.07 | 1:27.20 | 31507 | 38051 5 | 8:27.27 | 4:00.00 | 38052 | 56051 6 | 12:27.27 | 4:43.34 | 56052 | 77310 7 | 17:10.61 | 4:11.06 | 77311 | 96141 8 | 21:21.67 | 3:32.54 | 96142 | 112095 9 | 24:54.46 | 2:54.40 | 112096 | 125185 10 | 27:49.11 | 2:10.54 | 125186 | 134989 11 | 29:59.65 | 2:08.53 | 134990 | 144642 12 | 32:08.43 | 4:28.12 | 144643 | 164754 13 | 36:36.55 | 2:08.53 | 164755 | 174407 14 | 38:45.33 | 1:58.00 | 174408 | 183257 15 | 40:43.33 | 1:13.55 | 183258 | 188787 16 | 41:57.13 | 3:02.26 | 188788 | 202463 17 | 44:59.39 | 4:09.28 | 202464 | 221166 18 | 49:08.67 | 3:02.25 | 221167 | 234841 19 | 52:11.17 | 2:40.67 | 234842 | 246908 20 | 54:52.09 | 3:16.68 | 246909 | 261676 21 | 58:09.02 | 1:57.59 | 261677 | 270510 22 | 60:06.61 | 2:27.52 | 270511 | 281587 23 | 62:34.38 | 3:36.20 | 281588 | 297807 24 | 66:10.58 | 1:50.57 | 297808 | 306114 25 | 68:01.40 | 2:06.45 | 306115 | 315609 26 | 70:08.10 | 4:40.56 | 315610 | 336665
Характеристики диапазона извлечения и сообщения об ошибках
Выбранный диапазон
Имя файла C:\Users\Meijin\Desktop\Новая папка (4)\Various - Hardcore Underground 5 (CD2) - Mixed By Fracus & Darwin Vs. Brisk.wav
Пиковый уровень 99.9 % Качество диапазона 100.0 % CRC теста 3D5F373D CRC копии 3D5F373D Копирование... OK
Ошибок не произошло
AccurateRip: сводка
Трек 1 нет в базе данныхТрек 2 нет в базе данныхТрек 3 нет в базе данныхТрек 4 нет в базе данныхТрек 5 нет в базе данныхТрек 6 нет в базе данныхТрек 7 нет в базе данныхТрек 8 нет в базе данныхТрек 9 нет в базе данныхТрек 10 нет в базе данныхТрек 11 нет в базе данныхТрек 12 нет в базе данныхТрек 13 нет в базе данныхТрек 14 нет в базе данныхТрек 15 нет в базе данныхТрек 16 нет в базе данныхТрек 17 нет в базе данныхТрек 18 нет в базе данныхТрек 19 нет в базе данныхТрек 20 нет в базе данныхТрек 21 нет в базе данныхТрек 22 нет в базе данныхТрек 23 нет в базе данныхТрек 24 нет в базе данныхТрек 25 нет в базе данныхТрек 26 нет в базе данных
Ни одного трека нет в базе AccurateRip
Конец отчёта

Лог создания рипа CD3

Exact Audio Copy V0.99 prebeta 4 from 23. January 2008
Отчёт EAC об извлечении, выполненном 6. мая 2013, 19:42
Various / Hardcore Underground 5 (CD3) - Mixed By Slipmatt Vs. Entity
Дисковод: Optiarc DVD RW AD-7261S Adapter: 1 ID: 1
Режим чтения : ДостоверностьИспользование точного потока : ДаОтключение кэша аудио : ДаИспользование указателей C2 : Нет
Коррекция смещения при чтении : 48Способность читать области Lead-in и Lead-out : НетЗаполнение пропущенных сэмплов тишиной : ДаУдаление блоков с тишиной в начале и конце : НетПри вычислениях CRC использовались нулевые сэмплы : ДаИнтерфейс : Встроенный Win32-интерфейс для Win NT/2000
Выходной формат : Внутренние WAV-операцииФормат сэмплов : 44.100 Гц; 16 бит; стерео
TOC извлечённого CD
Трек | Старт | Длительность | Начальный сектор | Конечный сектор --------------------------------------------------------------------- 1 | 0:00.00 | 3:05.42 | 0 | 13916 2 | 3:05.42 | 1:27.19 | 13917 | 20460 3 | 4:32.61 | 2:54.42 | 20461 | 33552 4 | 7:27.28 | 2:10.68 | 33553 | 43370 5 | 9:38.21 | 3:16.27 | 43371 | 58097 6 | 12:54.48 | 2:54.40 | 58098 | 71187 7 | 15:49.13 | 3:44.36 | 71188 | 88023 8 | 19:33.49 | 2:54.42 | 88024 | 101115 9 | 22:28.16 | 2:54.38 | 101116 | 114203 10 | 25:22.54 | 2:54.41 | 114204 | 127294 11 | 28:17.20 | 3:05.34 | 127295 | 141203 12 | 31:22.54 | 2:35.33 | 141204 | 152861 13 | 33:58.12 | 3:05.33 | 152862 | 166769 14 | 37:03.45 | 3:05.25 | 166770 | 180669 15 | 40:08.70 | 3:38.32 | 180670 | 197051 16 | 43:47.27 | 2:14.62 | 197052 | 207163 17 | 46:02.14 | 2:31.00 | 207164 | 218488 18 | 48:33.14 | 3:16.64 | 218489 | 233252 19 | 51:50.03 | 2:56.46 | 233253 | 246498 20 | 54:46.49 | 3:41.10 | 246499 | 263083 21 | 58:27.59 | 2:55.20 | 263084 | 276228 22 | 61:23.04 | 2:09.22 | 276229 | 285925 23 | 63:32.26 | 3:25.25 | 285926 | 301325 24 | 66:57.51 | 2:29.25 | 301326 | 312525 25 | 69:27.01 | 3:06.52 | 312526 | 326527 26 | 72:33.53 | 2:18.47 | 326528 | 336924 27 | 74:52.25 | 2:36.36 | 336925 | 348660
Характеристики диапазона извлечения и сообщения об ошибках
Выбранный диапазон
Имя файла C:\Users\Meijin\Desktop\Новая папка (4)\Various - Hardcore Underground 5 (CD3) - Mixed By Slipmatt Vs. Entity.wav
Пиковый уровень 99.9 % Качество диапазона 99.9 % CRC теста A0CDF058 CRC копии A0CDF058 Копирование... OK
Ошибок не произошло
AccurateRip: сводка
Трек 1 нет в базе данныхТрек 2 нет в базе данныхТрек 3 нет в базе данныхТрек 4 нет в базе данныхТрек 5 нет в базе данныхТрек 6 нет в базе данныхТрек 7 нет в базе данныхТрек 8 нет в базе данныхТрек 9 нет в базе данныхТрек 10 нет в базе данныхТрек 11 нет в базе данныхТрек 12 нет в базе данныхТрек 13 нет в базе данныхТрек 14 нет в базе данныхТрек 15 нет в базе данныхТрек 16 нет в базе данныхТрек 17 нет в базе данныхТрек 18 нет в базе данныхТрек 19 нет в базе данныхТрек 20 нет в базе данныхТрек 21 нет в базе данныхТрек 22 нет в базе данныхТрек 23 нет в базе данныхТрек 24 нет в базе данныхТрек 25 нет в базе данныхТрек 26 нет в базе данныхТрек 27 нет в базе данных
Ни одного трека нет в базе AccurateRip
Конец отчёта

Лог создания рипа CD4

Exact Audio Copy V0.99 prebeta 4 from 23. January 2008
Отчёт EAC об извлечении, выполненном 6. мая 2013, 20:19
Various / Hardcore Underground 5 (CD4) - Mixed By Douglas vs. A.B
Дисковод: Optiarc DVD RW AD-7261S Adapter: 1 ID: 1
Режим чтения : ДостоверностьИспользование точного потока : ДаОтключение кэша аудио : ДаИспользование указателей C2 : Нет
Коррекция смещения при чтении : 48Способность читать области Lead-in и Lead-out : НетЗаполнение пропущенных сэмплов тишиной : ДаУдаление блоков с тишиной в начале и конце : НетПри вычислениях CRC использовались нулевые сэмплы : ДаИнтерфейс : Встроенный Win32-интерфейс для Win NT/2000
Выходной формат : Внутренние WAV-операцииФормат сэмплов : 44.100 Гц; 16 бит; стерео
TOC извлечённого CD
Трек | Старт | Длительность | Начальный сектор | Конечный сектор --------------------------------------------------------------------- 1 | 0:00.00 | 3:52.16 | 0 | 17415 2 | 3:52.16 | 2:27.53 | 17416 | 28493 3 | 6:19.69 | 2:27.53 | 28494 | 39571 4 | 8:47.47 | 2:18.36 | 39572 | 49957 5 | 11:06.08 | 2:48.62 | 49958 | 62619 6 | 13:54.70 | 1:45.36 | 62620 | 70530 7 | 15:40.31 | 1:29.41 | 70531 | 77246 8 | 17:09.72 | 4:33.11 | 77247 | 97732 9 | 21:43.08 | 3:18.34 | 97733 | 112616 10 | 25:01.42 | 3:12.72 | 112617 | 127088 11 | 28:14.39 | 2:53.22 | 127089 | 140085 12 | 31:07.61 | 3:22.12 | 140086 | 155247 13 | 34:29.73 | 4:08.61 | 155248 | 173908 14 | 38:38.59 | 2:29.48 | 173909 | 185131 15 | 41:08.32 | 2:53.65 | 185132 | 198171 16 | 44:02.22 | 3:28.51 | 198172 | 213822 17 | 47:30.73 | 2:49.69 | 213823 | 226566 18 | 50:20.67 | 4:00.42 | 226567 | 244608 19 | 54:21.34 | 2:32.70 | 244609 | 256078 20 | 56:54.29 | 4:45.40 | 256079 | 277493 21 | 61:39.69 | 1:53.54 | 277494 | 286022 22 | 63:33.48 | 3:13.33 | 286023 | 300530 23 | 66:47.06 | 3:32.32 | 300531 | 316462 24 | 70:19.38 | 3:38.25 | 316463 | 332837
Характеристики диапазона извлечения и сообщения об ошибках
Выбранный диапазон
Имя файла C:\Users\Meijin\Desktop\Новая папка (4)\Various - Hardcore Underground 5 (CD4) - Mixed By Douglas vs. A.B.wav
Пиковый уровень 99.9 % Качество диапазона 100.0 % CRC теста 0E22B1F6 CRC копии 0E22B1F6 Копирование... OK
Ошибок не произошло
AccurateRip: сводка
Трек 1 нет в базе данныхТрек 2 нет в базе данныхТрек 3 нет в базе данныхТрек 4 нет в базе данныхТрек 5 нет в базе данныхТрек 6 нет в базе данныхТрек 7 нет в базе данныхТрек 8 нет в базе данныхТрек 9 нет в базе данныхТрек 10 нет в базе данныхТрек 11 нет в базе данныхТрек 12 нет в базе данныхТрек 13 нет в базе данныхТрек 14 нет в базе данныхТрек 15 нет в базе данныхТрек 16 нет в базе данныхТрек 17 нет в базе данныхТрек 18 нет в базе данныхТрек 19 нет в базе данныхТрек 20 нет в базе данныхТрек 21 нет в базе данныхТрек 22 нет в базе данныхТрек 23 нет в базе данныхТрек 24 нет в базе данных
Ни одного трека нет в базе AccurateRip
Конец отчёта


Показать сообщения:    

Текущее время: 18-Дек 18:40

Часовой пояс: UTC ± 0


Вы не можете начинать темы
Вы не можете отвечать на сообщения
Вы не можете редактировать свои сообщения
Вы не можете удалять свои сообщения
Вы не можете голосовать в опросах
Вы не можете прикреплять файлы к сообщениям
Вы не можете скачивать файлы

!ВНИМАНИЕ!
Сайт не предоставляет электронные версии произведений, а занимается лишь коллекционированием и каталогизацией ссылок, присылаемых и публикуемых на форуме нашими читателями. Если вы являетесь правообладателем какого-либо представленного материала и не желаете, чтобы ссылка на него находилась в нашем каталоге, свяжитесь с нами, и мы незамедлительно удалим ее. Файлы для обмена на трекере предоставлены пользователями сайта, и администрация не несет ответственности за их содержание. Просьба не заливать файлы, защищенные авторскими правами, а также файлы нелегального содержания!