Важное объявление!
У Нас Все раздачи мультитрекерные, при нуле пиров в релизах, можете смело вставать на закачку!
 
Автор Сообщение

HUNTER

Стаж:
4 года 4 месяца
Сообщений:
56765

Репутация: 101

[+] [-]
Вне форума [Профиль] [ЛС]

Various Artists - Hardcore Til I Die 2
Жанр: UK Hardcore
Страна-производитель диска: UK
Год издания: 2004
Издатель (лейбл): Resist Music
Номер по каталогу: RESISTCD4
Аудиокодек: FLAC (*.flac)
Тип рипа: image+.cue
Битрейт аудио: lossless
Продолжительность: 2:25:13
Источник (релизер): Диск из личной коллекции. Фирменный.
Наличие сканов в содержимом раздачи: да
Треклист:
CD1:
01. Styles & Dougal - Still the One
02. Hixxy & Whizzkid - End of Time
03. Re-con - Right Here
04. Clear Vu - I Adore
05. Hixxy & Styles - The Theme
06. Re-con - Bang 9
07. Yum-Yi - Tru Love Obsession
08. Darren Styles - Getting Better
09. Re-con - Let It Show
10. Darren Styles - Cutting Deep
11. Hixxy and Styles - Taking Over Me
12. Adam H - Heaven's Above (Hixxy Remix - The Old Vocal Mix)
13. Weaver - Falling In (Never See Vinyl Hixxy Remix)
14. Stlyles and Breeze - Black Magic (Style's VIP Hardcore Heaven Remix)
CD2:
01. Breeze & Styles - Sonic
02. Dougal & Gammer - Crack Whore
03. Breeze & Styles - Thug Boy
04. UFO feat Shelly - You're the one I need
05. Breeze & Styles - Drop the Beats
06. 69 - Always
07. Dougal & Gammer - Rainfall
08. UFO feat Shelly - Raining Down
09. Breeze & Stompy - Uproar
10. UFO feat Shelly - Fade Away
11. Breeze & UFO - Take your Time
12. Storm & Euphony feat Danielle - Breathe
13. Dougal & Gammer - Fires in the Sky
14. Kingsize & Eternity - Touch of Magic

-

Лог создания рипа cd1

Exact Audio Copy V0.99 prebeta 4 from 23. January 2008
Отчёт EAC об извлечении, выполненном 31. января 2013, 21:44
Various / Hardcore Til I Die 2 (CD1)
Дисковод: Optiarc DVD RW AD-7261S Adapter: 1 ID: 1
Режим чтения : ДостоверностьИспользование точного потока : ДаОтключение кэша аудио : ДаИспользование указателей C2 : Нет
Коррекция смещения при чтении : 48Способность читать области Lead-in и Lead-out : НетЗаполнение пропущенных сэмплов тишиной : ДаУдаление блоков с тишиной в начале и конце : НетПри вычислениях CRC использовались нулевые сэмплы : ДаИнтерфейс : Встроенный Win32-интерфейс для Win NT/2000
Выходной формат : Внутренние WAV-операцииФормат сэмплов : 44.100 Гц; 16 бит; стерео
TOC извлечённого CD
Трек | Старт | Длительность | Начальный сектор | Конечный сектор --------------------------------------------------------------------- 1 | 0:00.00 | 4:36.45 | 0 | 20744 2 | 4:36.45 | 4:57.10 | 20745 | 43029 3 | 9:33.55 | 4:45.53 | 43030 | 64457 4 | 14:19.33 | 4:21.70 | 64458 | 84102 5 | 18:41.28 | 6:05.17 | 84103 | 111494 6 | 24:46.45 | 4:35.54 | 111495 | 132173 7 | 29:22.24 | 4:34.21 | 132174 | 152744 8 | 33:56.45 | 5:08.43 | 152745 | 175887 9 | 39:05.13 | 3:54.06 | 175888 | 193443 10 | 42:59.19 | 4:03.10 | 193444 | 211678 11 | 47:02.29 | 5:04.05 | 211679 | 234483 12 | 52:06.34 | 7:15.56 | 234484 | 267164 13 | 59:22.15 | 7:41.70 | 267165 | 301809 14 | 67:04.10 | 5:48.39 | 301810 | 327948
Характеристики диапазона извлечения и сообщения об ошибках
Выбранный диапазон
Имя файла C:\Users\Meijin\Desktop\VA - Hardcore Til I Die 2\CD 1\Various - Hardcore Til I Die 2 (CD1).wav
Пиковый уровень 98.8 % Качество диапазона 99.9 % CRC теста 33DCF1EC CRC копии 33DCF1EC Копирование... OK
Ошибок не произошло
AccurateRip: сводка
Трек 1 точное извлечение (доверие 2) [05432E8E]Трек 2 точное извлечение (доверие 2) [9E1CB70E]Трек 3 точное извлечение (доверие 2) [432779A5]Трек 4 точное извлечение (доверие 2) [6513EE6F]Трек 5 точное извлечение (доверие 2) [3A0FBD81]Трек 6 точное извлечение (доверие 2) [E65DE52A]Трек 7 точное извлечение (доверие 2) [61D313DE]Трек 8 точное извлечение (доверие 2) [9D0ADE82]Трек 9 точное извлечение (доверие 2) [FD149116]Трек 10 точное извлечение (доверие 2) [EBC45AC8]Трек 11 точное извлечение (доверие 2) [094617B7]Трек 12 точное извлечение (доверие 2) [996CED1C]Трек 13 точность не определена (достоверность 2) [BB05F5B2], AccurateRip вернул [57C386D3]Трек 14 точное извлечение (доверие 2) [26BBD94B]
13 трек(и) скопированы точно 1 трек(и) не удалось проверить на точность
Некоторые треки не прошли проверку на точность
Конец отчёта

Лог создания рипа cd2

Exact Audio Copy V0.99 prebeta 4 from 23. January 2008
Отчёт EAC об извлечении, выполненном 31. января 2013, 22:20
Various / Hardcore Til I Die 2 (CD2)
Дисковод: Optiarc DVD RW AD-7261S Adapter: 1 ID: 1
Режим чтения : ДостоверностьИспользование точного потока : ДаОтключение кэша аудио : ДаИспользование указателей C2 : Нет
Коррекция смещения при чтении : 48Способность читать области Lead-in и Lead-out : НетЗаполнение пропущенных сэмплов тишиной : ДаУдаление блоков с тишиной в начале и конце : НетПри вычислениях CRC использовались нулевые сэмплы : ДаИнтерфейс : Встроенный Win32-интерфейс для Win NT/2000
Выходной формат : Внутренние WAV-операцииФормат сэмплов : 44.100 Гц; 16 бит; стерео
TOC извлечённого CD
Трек | Старт | Длительность | Начальный сектор | Конечный сектор --------------------------------------------------------------------- 1 | 0:00.00 | 4:55.10 | 0 | 22134 2 | 4:55.10 | 4:15.39 | 22135 | 41298 3 | 9:10.49 | 4:09.66 | 41299 | 60039 4 | 13:20.40 | 4:23.73 | 60040 | 79837 5 | 17:44.38 | 3:41.47 | 79838 | 96459 6 | 21:26.10 | 4:10.58 | 96460 | 115267 7 | 25:36.68 | 4:55.44 | 115268 | 137436 8 | 30:32.37 | 4:09.67 | 137437 | 156178 9 | 34:42.29 | 4:08.32 | 156179 | 174810 10 | 38:50.61 | 5:48.08 | 174811 | 200918 11 | 44:38.69 | 6:08.62 | 200919 | 228580 12 | 50:47.56 | 7:39.64 | 228581 | 263069 13 | 58:27.45 | 7:20.60 | 263070 | 296129 14 | 65:48.30 | 6:32.25 | 296130 | 325554
Характеристики диапазона извлечения и сообщения об ошибках
Выбранный диапазон
Имя файла C:\Users\Meijin\Desktop\VA - Hardcore Til I Die 2\CD 2\Various - Hardcore Til I Die 2.wav
Пиковый уровень 98.8 % Качество диапазона 99.9 % CRC теста 69B543C8 CRC копии 69B543C8 Копирование... OK
Ошибок не произошло
AccurateRip: сводка
Трек 1 точное извлечение (доверие 3) [B2D1A5EB]Трек 2 точное извлечение (доверие 3) [8464A288]Трек 3 точное извлечение (доверие 3) [270B20CD]Трек 4 точное извлечение (доверие 3) [3E2FF240]Трек 5 точное извлечение (доверие 3) [7C1319ED]Трек 6 точное извлечение (доверие 3) [E5310837]Трек 7 точное извлечение (доверие 3) [0AFCF714]Трек 8 точное извлечение (доверие 3) [DFB5BF5D]Трек 9 точное извлечение (доверие 3) [BD508F31]Трек 10 точное извлечение (доверие 3) [C255ECE7]Трек 11 точное извлечение (доверие 3) [A495915E]Трек 12 точное извлечение (доверие 3) [2A13BEC2]Трек 13 точное извлечение (доверие 3) [3CDE93FF]Трек 14 точное извлечение (доверие 3) [F5E55C7C]
Все треки извлечены точно
Конец отчёта
Доп. информация: http://www.discogs.com/Hixxy-Re-Con-Dougal-UFO-Hard...e-2/master/59946

_________________
Показать сообщения:    

Текущее время: Сегодня 02:27

Часовой пояс: GMT



Вы не можете начинать темы
Вы не можете отвечать на сообщения
Вы не можете редактировать свои сообщения
Вы не можете удалять свои сообщения
Вы не можете голосовать в опросах
Вы не можете прикреплять файлы к сообщениям
Вы не можете скачивать файлы