Важное объявление!
У Нас Все раздачи мультитрекерные, при нуле пиров в релизах, можете смело вставать на закачку!
 
Автор Сообщение

HUNTER

Стаж:
4 года 4 месяца
Сообщений:
56734

Репутация: 101

[+] [-]
Вне форума [Профиль] [ЛС]

VA - Hardcore Reunited
Жанр: UK Hardcore
Страна-производитель диска: UK
Год издания: 2005
Издатель (лейбл): Stormin Tunes
Номер по каталогу: STORMCD 003
Аудиокодек: FLAC (*.flac)
Тип рипа: image+.cue
Битрейт аудио: lossless
Продолжительность: 3:37:58
Источник (релизер): Диск из личной коллекции
Наличие сканов в содержимом раздачи: да
Треклист:
CD1: Mixed By Slipmatt (1:10:33)
01. SMD – SMD 1 (Slipmatt's Exclusive 2005 Slip Up Remix) (3:52)
02. Dougal & Eruption – Party Time (Dougal & Gammer Remix) (4:39)
03. Stormtrooper – Drop The Beat (4:25)
04. Dougal & Gammer – Know The Score (4:37)
05. Slippery Project – Something Like This (Slipmatt, Dougal & Gammer Remix) (3:41)
06. Spenno & Dizzy Featuring Jessica – Waiting Forever (4:36)
07. Slipmatt – Feel It In My Soul (Exclusive Album Mix) (3:52)
08. Spenno & Stocky Featuring Jessica – Inferno (4:26)
09. DJ D-Ice & Reality – Runnin' (3:38)
10. Flyin vs. Adam L & Sparky – Come & Follow Me (3:35)
11. DJ D-Ice – Open Your Mind (5:12)
12. Gravy Boys – Count The Hours (4:24)
13. Vibes & Hattrixx – Rave Is Still A Mystery (4:03)
14. Lee UHF – Kickdrum Trip (3:45)
15. Ham – Jump To The Groove (4:04)
16. Vibes & Hattrixx – Music's Well Wonderful (4:14)
17. Robbie Long & Coyote – 2001 Style (3:32)

CD2: Mixed By Devastate (1:18:52)

01. Tha Outsidaz – Go To Hell (5:18)
02. UFO – Into The Future (3:59)
03. Adam Harris – Hands Up (3:53)
04. JFX & Al Twisted – Super Crazy Ill (4:20)
05. Uplift, Cris E Manic & Lukozade – Poached & Re-Scrambled (5:27)
06. Supernova – Mood Music (5:08)
07. DJ Expression – Major League (4:23)
08. Universal Hardcore – Time Travel (4:41)
09. Freestyle & Riddler – The Messenger (Invader IVUK Remix) (3:20)
10. Shanty, Tazz & Devastate – DDR (6:39)
11. Scott Devotion & Sytronik – Kick It Hardcore (1:54)
12. Dair – Big Fat Momma (4:39)
13. Scott Majestik – Eve Of The War (Tha Outsidaz Remix) (3:35)
14. Brisk & Ham – Serious Hardcore (Vagabond Remix) (4:06)
15. Robbie Long & A.M.S. – Messiah (2:39)
16. Invader & Freestyle – Disappear (4:18)
17. Pursuit – We're Gonna Do It (3:34)
18. Lee UHF – Animal (3:20)
19. Devastate – Raw (3:40)

CD3: Mixed By Fracus (1:08:31)

01. Fracus & Gavin G Featuring Lisa Abbott – Open Your Eyes To Love (Album Mix) (4:37)
02. Fracus – Maybe (5:27)
03. Gavin G – Through Me (4:10)
04. Sparky – Makin' Ya Bounce (4:37)
05. Fracus Featuring Lisa Abbott – Always Stay With Me (4:20)
06. Mozz & Thumpa Featuring J Malone – Summer Fruits (4:10)
07. Optamisstic – Beautiful (5:08)
08. UFO – Breakin' Thru 2005 (3:16)
09. Mozz & Speedy B – Drift (Flyin' & Sparky Remix) (5:07)
10. Fracus Featuring Lisa – All In My Mind (Gavin G & Dan Rolla J Remix) (4:12)
11. DJ Stormtrooper – Wildstyle (5:12)
12. Dougal & Gammer – Got It Good (3:09)
13. Stormtrooper – Right Now (4:51)
14. A.M.S. – Hard Bass (4:32)
15. Ponder & HB – On My Mind (5:46)

-

Лог создания рипа CD1

Exact Audio Copy V0.99 prebeta 4 from 23. January 2008
Отчёт EAC об извлечении, выполненном 24. апреля 2013, 15:22
Various / Hardcore Reunited (CD1) - Mixed By Slipmatt
Дисковод: Optiarc DVD RW AD-7261S Adapter: 1 ID: 1
Режим чтения : ДостоверностьИспользование точного потока : ДаОтключение кэша аудио : ДаИспользование указателей C2 : Нет
Коррекция смещения при чтении : 48Способность читать области Lead-in и Lead-out : НетЗаполнение пропущенных сэмплов тишиной : ДаУдаление блоков с тишиной в начале и конце : НетПри вычислениях CRC использовались нулевые сэмплы : ДаИнтерфейс : Встроенный Win32-интерфейс для Win NT/2000
Выходной формат : Внутренние WAV-операцииФормат сэмплов : 44.100 Гц; 16 бит; стерео
TOC извлечённого CD
Трек | Старт | Длительность | Начальный сектор | Конечный сектор --------------------------------------------------------------------- 1 | 0:00.00 | 3:52.29 | 0 | 17428 2 | 3:52.29 | 4:38.53 | 17429 | 38331 3 | 8:31.07 | 4:24.58 | 38332 | 58189 4 | 12:55.65 | 4:37.30 | 58190 | 78994 5 | 17:33.20 | 3:40.61 | 78995 | 95555 6 | 21:14.06 | 4:35.59 | 95556 | 116239 7 | 25:49.65 | 3:51.47 | 116240 | 133611 8 | 29:41.37 | 4:26.08 | 133612 | 153569 9 | 34:07.45 | 3:37.64 | 153570 | 169908 10 | 37:45.34 | 3:35.06 | 169909 | 186039 11 | 41:20.40 | 5:11.40 | 186040 | 209404 12 | 46:32.05 | 4:24.34 | 209405 | 229238 13 | 50:56.39 | 4:02.47 | 229239 | 247435 14 | 54:59.11 | 3:44.39 | 247436 | 264274 15 | 58:43.50 | 4:03.61 | 264275 | 282560 16 | 62:47.36 | 4:13.39 | 282561 | 301574 17 | 67:01.00 | 3:32.32 | 301575 | 317506
Характеристики диапазона извлечения и сообщения об ошибках
Выбранный диапазон
Имя файла C:\Users\Meijin\Desktop\Новая папка (4)\Various - Hardcore Reunited (CD1) - Mixed By Slipmatt.wav
Пиковый уровень 94.4 % Качество диапазона 100.0 % CRC теста 60E7383E CRC копии 60E7383E Копирование... OK
Ошибок не произошло
AccurateRip: сводка
Трек 1 точное извлечение (доверие 1) [E6DBF81F]Трек 2 точное извлечение (доверие 1) [F505663D]Трек 3 точное извлечение (доверие 1) [88D2B91E]Трек 4 точное извлечение (доверие 1) [60A287C0]Трек 5 точное извлечение (доверие 1) [E5784DEE]Трек 6 точное извлечение (доверие 1) [DC94305B]Трек 7 точное извлечение (доверие 1) [21FAF9F1]Трек 8 точное извлечение (доверие 1) [D08B15D7]Трек 9 точное извлечение (доверие 1) [5020C91A]Трек 10 точное извлечение (доверие 1) [1253A9A8]Трек 11 точное извлечение (доверие 1) [DEB24BDF]Трек 12 точное извлечение (доверие 1) [E3E4B50E]Трек 13 точное извлечение (доверие 1) [210AC209]Трек 14 точное извлечение (доверие 1) [5D536FBB]Трек 15 точное извлечение (доверие 1) [A777269C]Трек 16 точное извлечение (доверие 1) [6EC688E8]Трек 17 точное извлечение (доверие 1) [4581DAAA]
Все треки извлечены точно
Конец отчёта

Лог создания рипа CD2

Exact Audio Copy V0.99 prebeta 4 from 23. January 2008
Отчёт EAC об извлечении, выполненном 24. апреля 2013, 20:15
Various / Hardcore Reunited (CD2) - Mixed By Devastate
Дисковод: Optiarc DVD RW AD-7261S Adapter: 1 ID: 1
Режим чтения : ДостоверностьИспользование точного потока : ДаОтключение кэша аудио : ДаИспользование указателей C2 : Нет
Коррекция смещения при чтении : 48Способность читать области Lead-in и Lead-out : НетЗаполнение пропущенных сэмплов тишиной : ДаУдаление блоков с тишиной в начале и конце : НетПри вычислениях CRC использовались нулевые сэмплы : ДаИнтерфейс : Встроенный Win32-интерфейс для Win NT/2000
Выходной формат : Внутренние WAV-операцииФормат сэмплов : 44.100 Гц; 16 бит; стерео
TOC извлечённого CD
Трек | Старт | Длительность | Начальный сектор | Конечный сектор --------------------------------------------------------------------- 1 | 0:00.00 | 5:17.58 | 0 | 23832 2 | 5:17.58 | 3:58.43 | 23833 | 41725 3 | 9:16.26 | 3:52.61 | 41726 | 59186 4 | 13:09.12 | 4:20.21 | 59187 | 78707 5 | 17:29.33 | 5:27.29 | 78708 | 103261 6 | 22:56.62 | 5:08.14 | 103262 | 126375 7 | 28:05.01 | 4:22.45 | 126376 | 146070 8 | 32:27.46 | 4:40.73 | 146071 | 167143 9 | 37:08.44 | 3:20.28 | 167144 | 182171 10 | 40:28.72 | 6:38.58 | 182172 | 212079 11 | 47:07.55 | 1:53.68 | 212080 | 220622 12 | 49:01.48 | 4:38.55 | 220623 | 241527 13 | 53:40.28 | 3:35.35 | 241528 | 257687 14 | 57:15.63 | 4:05.38 | 257688 | 276100 15 | 61:21.26 | 2:38.63 | 276101 | 288013 16 | 64:00.14 | 4:17.72 | 288014 | 307360 17 | 68:18.11 | 3:34.05 | 307361 | 323415 18 | 71:52.16 | 3:20.22 | 323416 | 338437 19 | 75:12.38 | 3:39.52 | 338438 | 354914
Характеристики диапазона извлечения и сообщения об ошибках
Выбранный диапазон
Имя файла C:\Users\Meijin\Desktop\Новая папка (4)\Various - Hardcore Reunited (CD2) - Mixed By Devastate.wav
Пиковый уровень 97.7 % Качество диапазона 99.9 % CRC теста 3684100C CRC копии 3684100C Копирование... OK
Ошибок не произошло
AccurateRip: сводка
Трек 1 точность не определена (достоверность 1) [E16E7704], AccurateRip вернул [2F8BD7C8]Трек 2 точность не определена (достоверность 1) [9A855F1F], AccurateRip вернул [1A4E7238]Трек 3 точность не определена (достоверность 1) [BEE72049], AccurateRip вернул [0C700060]Трек 4 точность не определена (достоверность 1) [7D2BE91B], AccurateRip вернул [A27F6256]Трек 5 точность не определена (достоверность 1) [2357BA5C], AccurateRip вернул [38D0EE7B]Трек 6 точность не определена (достоверность 1) [AEF13020], AccurateRip вернул [6D440FA2]Трек 7 точность не определена (достоверность 1) [637943E6], AccurateRip вернул [F035E444]Трек 8 точность не определена (достоверность 1) [C03576DC], AccurateRip вернул [8AC05373]Трек 9 точность не определена (достоверность 1) [04BBAB71], AccurateRip вернул [A7E7D35F]Трек 10 точность не определена (достоверность 1) [ACB9FFA4], AccurateRip вернул [456423F2]Трек 11 точность не определена (достоверность 1) [BFA85013], AccurateRip вернул [B70E2A84]Трек 12 точность не определена (достоверность 1) [E510420D], AccurateRip вернул [7B5EADFE]Трек 13 точность не определена (достоверность 1) [1079965C], AccurateRip вернул [32227A9E]Трек 14 точность не определена (достоверность 1) [3E949F6C], AccurateRip вернул [6245C3E0]Трек 15 точность не определена (достоверность 1) [C3C9A0B3], AccurateRip вернул [64A6B6A0]Трек 16 точность не определена (достоверность 1) [A45C6E19], AccurateRip вернул [D0339E27]Трек 17 точность не определена (достоверность 1) [C73AD153], AccurateRip вернул [8B558EDF]Трек 18 точность не определена (достоверность 1) [E615C309], AccurateRip вернул [6A65C29C]Трек 19 точность не определена (достоверность 1) [78151A98], AccurateRip вернул [294B2399]
Ни один трек не прошёл проверки на точностьВ вашей базе может быть иной вариант штамповки диска
Конец отчёта

Лог создания рипа CD3

Exact Audio Copy V0.99 prebeta 4 from 23. January 2008
Отчёт EAC об извлечении, выполненном 24. апреля 2013, 20:51
Various / Hardcore Reunited (CD3) - Mixed By Fracus
Дисковод: Optiarc DVD RW AD-7261S Adapter: 1 ID: 1
Режим чтения : ДостоверностьИспользование точного потока : ДаОтключение кэша аудио : ДаИспользование указателей C2 : Нет
Коррекция смещения при чтении : 48Способность читать области Lead-in и Lead-out : НетЗаполнение пропущенных сэмплов тишиной : ДаУдаление блоков с тишиной в начале и конце : НетПри вычислениях CRC использовались нулевые сэмплы : ДаИнтерфейс : Встроенный Win32-интерфейс для Win NT/2000
Выходной формат : Внутренние WAV-операцииФормат сэмплов : 44.100 Гц; 16 бит; стерео
TOC извлечённого CD
Трек | Старт | Длительность | Начальный сектор | Конечный сектор --------------------------------------------------------------------- 1 | 0:00.00 | 4:36.65 | 0 | 20764 2 | 4:36.65 | 5:26.62 | 20765 | 45276 3 | 10:03.52 | 4:10.35 | 45277 | 64061 4 | 14:14.12 | 4:36.61 | 64062 | 84822 5 | 18:50.73 | 4:19.57 | 84823 | 104304 6 | 23:10.55 | 4:09.66 | 104305 | 123045 7 | 27:20.46 | 5:07.57 | 123046 | 146127 8 | 32:28.28 | 3:16.17 | 146128 | 160844 9 | 35:44.45 | 5:07.32 | 160845 | 183901 10 | 40:52.02 | 4:11.40 | 183902 | 202766 11 | 45:03.42 | 5:11.54 | 202767 | 226145 12 | 50:15.21 | 3:09.08 | 226146 | 240328 13 | 53:24.29 | 4:50.50 | 240329 | 262128 14 | 58:15.04 | 4:31.52 | 262129 | 282505 15 | 62:46.56 | 5:45.43 | 282506 | 308423
Характеристики диапазона извлечения и сообщения об ошибках
Выбранный диапазон
Имя файла C:\Users\Meijin\Desktop\Новая папка (4)\Various - Hardcore Reunited (CD3) - Mixed By Fracus.wav
Пиковый уровень 94.4 % Качество диапазона 100.0 % CRC теста B0496122 CRC копии B0496122 Копирование... OK
Ошибок не произошло
AccurateRip: сводка
Трек 1 точное извлечение (доверие 1) [D1DBA404]Трек 2 точное извлечение (доверие 1) [09941CAB]Трек 3 точное извлечение (доверие 1) [155925FC]Трек 4 точное извлечение (доверие 1) [90E83467]Трек 5 точное извлечение (доверие 1) [3641447E]Трек 6 точное извлечение (доверие 1) [C3783BB8]Трек 7 точное извлечение (доверие 1) [BA7FC958]Трек 8 точное извлечение (доверие 1) [5D514D6B]Трек 9 точное извлечение (доверие 1) [5C08BFA7]Трек 10 точное извлечение (доверие 1) [AA48EA47]Трек 11 точное извлечение (доверие 1) [9F74B2E7]Трек 12 точное извлечение (доверие 1) [2DCB2AA9]Трек 13 точное извлечение (доверие 1) [0117ECB1]Трек 14 точное извлечение (доверие 1) [E232E036]Трек 15 точное извлечение (доверие 1) [9D22D39C]
Все треки извлечены точно
Конец отчёта

_________________
Показать сообщения:    

Текущее время: Сегодня 13:11

Часовой пояс: GMT



Вы не можете начинать темы
Вы не можете отвечать на сообщения
Вы не можете редактировать свои сообщения
Вы не можете удалять свои сообщения
Вы не можете голосовать в опросах
Вы не можете прикреплять файлы к сообщениям
Вы не можете скачивать файлы