Важное объявление!
У Нас Все раздачи мультитрекерные, при нуле пиров в релизах, можете смело вставать на закачку!
 
Автор Сообщение

HUNTER

Стаж:
4 года 7 месяцев
Сообщений:
61590

Репутация: 101

[+] [-]
Вне форума [Профиль] [ЛС]

Various Artists - Hardcore Nation 2009
Жанр: UK Hardcore
Страна-производитель диска: UK
Год издания: 2008
Издатель (лейбл): Virgin
Номер по каталогу: VTCD 945 / 5099926833125
Страна: UK
Аудиокодек: FLAC (*.flac)
Тип рипа: image+.cue
Битрейт аудио: lossless
Продолжительность: 3:51:36
Источник (релизер): Диск из личной коллекции
Наличие сканов в содержимом раздачи: да
Треклист:
CD1: Stu Allan (1:18:37)
01. Guru Josh Project - Infinity 2008 (JAKAZiD Mix)
02. Bishop ft Marie Louise - Born to Bleed (Orbit1 Remix)
03. Visa – Fly Away (Al Storm's HN VIP Mix)
04. Stu Allan & Al Storm feat. Vicky Fee - Paint Me In Sadness (Darwin Mix)
05. Amen UK - Passion (Sy & Unknown Remix)
06. DJ Seduction feat. Alison Wade - Open Up (Chaos Remix)
07. Stu Allan - The Past
08. Al Storm ft Katie Jewels - Never Alone
09. Fracus Ft Fraz - Save Our Love
10. Stu Allan ft Vicky Fee - Without You (Fracus Mix)
11. Connected ft Max'C - A Feeling (Darwin Mix)
12. Barthezz - On The Move (Stu Allan & Darwin Remix)
13. Breeze - Complete Heaven (Darwin Remix)
14. Samba D & Darwin - Hear Our Music
15. Fretman Vs Alex F - Fire
16. AudioJunkie & DJ Stylus - I Get Stoned
17. Brisk & Stormtrooper - Twatris
18. Perfect Phase - Horny Horns (Stu Allan & Darwin Remix)
19. Stu Allan & Darwin - Hardcore Nation
CD2: Joey Riot (1:16:00)
01. Joey Riot – Feel Complete
02. Gammer – Take Control
03. Joey Riot ft Kelly C – The Power Within (Sy & Unknown Remix)
04. Ham And DNA – About You 08
05. Himbo & MC Enemy – Everywhere I Turn (Orbit1 Remix)
06. BBE – 7 Days & 1 Week (Joey Riot Remix)
07. Flyin & Sparky – True Love Revolution (Recon Remix)
08. Scandal & Kaos Theory – Luvshy (Joey Riot Remix)
09. Kurt & MixZ - Shake Ya Body
10. MC Whizzkid & Joey Riot – Lost
11. Sy & Unknown – Electronic
12. MC Wotsee & Joey Riot – Life Goes On
13. Visa – All I Need (DJ Kurt VIP Mix)
14. Sy & Unknown ft Ben Williams – Don’t Want To Let You Down (Joey Riot Remix)
15. Ferry Corsten – Punk (Joey Riot Remix)
16. DJ Kurt – I Don’t Like It
17. Kevin Energy & Joey Riot – Lethal Energy
18. DJ Kurt – Straight From The Underground (Joey Riot Powerbounce Mix)
19. Marc Smith & Gammer – Building Shaker
20. Gammer & Joey Riot – Comin Up Strong
CD3: Bootlegs (1:17:28)
01. JoBabe - I Kissed A Girl (JAKAZiD Remix)
02. Fragma ‘Toca’s Miracle’ (Darren Styles Remix)
03. Alphabeat – Fascination (Orbit1 Remix)
04. Lasgo 'Something' (Barley Remix)
05. Watergate – Heart Of Asia (Orbit 1 Remix)
06. HNK ‘What’s It Gonna Be’ (Barley Remix)
07. Nukleuz Kollective - Rhythm Is A Dancer
08. The Angry Kids vs Bob Marley ‘Mr Brown’ (JAKAZiD Remix)
09. Hyper Deejays ‘Don’t Stop Movin’ (JAKAZiD Remix)
10. JoBabe ‘Heartbroken’ (DJ Shimamura Remix)
11. Darwin – Promise Me (4 o Clock)
12. Shy FX & T-Power - Shake Your Body (JAKAZiD Breaks Mix)
13. Mark Brown ft Sarah Cracknell ‘The Journey Continues’ (Dougal & Gammer Remix)
14. Gammer vs Frantic – Braveheart (Joey Riot Remix)
15. Mario Piu – Communication (Audioscape Remix)
16. BK ‘Revolution’ (JAKAZiD Remix)
17. Nukleuz Kollective ‘Blood Is Pumping’ (Audioscape Remix)
18. Miss XS ‘Charly’ (Orbit1 Remix)
19. Vinylgroover & The Red Hed “Move Your Body” (Last Of The Mohicans Vs J-Swish Rmx)

-

Лог создания рипа CD1

Exact Audio Copy V0.99 prebeta 4 from 23. January 2008
Отчёт EAC об извлечении, выполненном 9. февраля 2013, 21:32
Various / Hardcore Nation 2009 (CD1)
Дисковод: Optiarc DVD RW AD-7261S Adapter: 1 ID: 1
Режим чтения : ДостоверностьИспользование точного потока : ДаОтключение кэша аудио : ДаИспользование указателей C2 : Нет
Коррекция смещения при чтении : 48Способность читать области Lead-in и Lead-out : НетЗаполнение пропущенных сэмплов тишиной : ДаУдаление блоков с тишиной в начале и конце : НетПри вычислениях CRC использовались нулевые сэмплы : ДаИнтерфейс : Встроенный Win32-интерфейс для Win NT/2000
Выходной формат : Внутренние WAV-операцииФормат сэмплов : 44.100 Гц; 16 бит; стерео
TOC извлечённого CD
Трек | Старт | Длительность | Начальный сектор | Конечный сектор --------------------------------------------------------------------- 1 | 0:00.00 | 4:30.24 | 0 | 20273 2 | 4:30.24 | 3:23.58 | 20274 | 35556 3 | 7:54.07 | 3:46.60 | 35557 | 52566 4 | 11:40.67 | 3:58.73 | 52567 | 70489 5 | 15:39.65 | 3:46.44 | 70490 | 87483 6 | 19:26.34 | 3:58.11 | 87484 | 105344 7 | 23:24.45 | 4:43.67 | 105345 | 126636 8 | 28:08.37 | 3:13.57 | 126637 | 141168 9 | 31:22.19 | 4:12.06 | 141169 | 160074 10 | 35:34.25 | 4:49.72 | 160075 | 181821 11 | 40:24.22 | 5:08.09 | 181822 | 204930 12 | 45:32.31 | 4:45.17 | 204931 | 226322 13 | 50:17.48 | 3:13.55 | 226323 | 240852 14 | 53:31.28 | 4:15.52 | 240853 | 260029 15 | 57:47.05 | 4:21.35 | 260030 | 279639 16 | 62:08.40 | 3:45.23 | 279640 | 296537 17 | 65:53.63 | 3:44.27 | 296538 | 313364 18 | 69:38.15 | 4:31.60 | 313365 | 333749 19 | 74:10.00 | 4:26.44 | 333750 | 353743
Характеристики диапазона извлечения и сообщения об ошибках
Выбранный диапазон
Имя файла C:\Users\Meijin\Desktop\Новая папка (4)\Various - Hardcore Nation 2009 (CD1).wav
Пиковый уровень 98.9 % Качество диапазона 100.0 % CRC теста E883CAEB CRC копии E883CAEB Копирование... OK
Ошибок не произошло
AccurateRip: сводка
Трек 1 точное извлечение (доверие 1) [BC106B13]Трек 2 точное извлечение (доверие 1) [696AE55A]Трек 3 точное извлечение (доверие 1) [6E510979]Трек 4 точное извлечение (доверие 1) [BF7B5580]Трек 5 точное извлечение (доверие 1) [257F823F]Трек 6 точное извлечение (доверие 1) [3F87E545]Трек 7 точное извлечение (доверие 1) [0C5FDA87]Трек 8 точное извлечение (доверие 1) [9F219726]Трек 9 точное извлечение (доверие 1) [4DB86855]Трек 10 точное извлечение (доверие 1) [48FB48A3]Трек 11 точное извлечение (доверие 1) [2EAFBD3D]Трек 12 точное извлечение (доверие 1) [A69C4A56]Трек 13 точное извлечение (доверие 1) [8086E076]Трек 14 точное извлечение (доверие 1) [E61B50DC]Трек 15 точное извлечение (доверие 1) [7CE4DD1A]Трек 16 точное извлечение (доверие 1) [CB2B7BE7]Трек 17 точное извлечение (доверие 1) [DFE9B2B7]Трек 18 точное извлечение (доверие 1) [DD64EC42]Трек 19 точное извлечение (доверие 1) [72B6A65F]
Все треки извлечены точно
Конец отчёта

Лог создания рипа CD2

Exact Audio Copy V0.99 prebeta 4 from 23. January 2008
Отчёт EAC об извлечении, выполненном 9. февраля 2013, 19:53
Various / Hardcore Nation 2009 (CD2)
Дисковод: Optiarc DVD RW AD-7261S Adapter: 1 ID: 1
Режим чтения : ДостоверностьИспользование точного потока : ДаОтключение кэша аудио : ДаИспользование указателей C2 : Нет
Коррекция смещения при чтении : 48Способность читать области Lead-in и Lead-out : НетЗаполнение пропущенных сэмплов тишиной : ДаУдаление блоков с тишиной в начале и конце : НетПри вычислениях CRC использовались нулевые сэмплы : ДаИнтерфейс : Встроенный Win32-интерфейс для Win NT/2000
Выходной формат : Внутренние WAV-операцииФормат сэмплов : 44.100 Гц; 16 бит; стерео
TOC извлечённого CD
Трек | Старт | Длительность | Начальный сектор | Конечный сектор --------------------------------------------------------------------- 1 | 0:00.00 | 5:10.41 | 0 | 23290 2 | 5:10.41 | 4:07.66 | 23291 | 41881 3 | 9:18.32 | 4:17.32 | 41882 | 61188 4 | 13:35.64 | 5:00.25 | 61189 | 83713 5 | 18:36.14 | 3:54.48 | 83714 | 101311 6 | 22:30.62 | 3:06.28 | 101312 | 115289 7 | 25:37.15 | 4:49.45 | 115290 | 137009 8 | 30:26.60 | 2:28.62 | 137010 | 148171 9 | 32:55.47 | 3:38.41 | 148172 | 164562 10 | 36:34.13 | 2:08.54 | 164563 | 174216 11 | 38:42.67 | 1:36.40 | 174217 | 181456 12 | 40:19.32 | 4:16.07 | 181457 | 200663 13 | 44:35.39 | 3:09.04 | 200664 | 214842 14 | 47:44.43 | 4:38.66 | 214843 | 235758 15 | 52:23.34 | 4:02.26 | 235759 | 253934 16 | 56:25.60 | 2:31.38 | 253935 | 265297 17 | 58:57.23 | 3:41.18 | 265298 | 281890 18 | 62:38.41 | 3:46.44 | 281891 | 298884 19 | 66:25.10 | 4:13.32 | 298885 | 317891 20 | 70:38.42 | 5:21.52 | 317892 | 342018
Характеристики диапазона извлечения и сообщения об ошибках
Выбранный диапазон
Имя файла C:\Users\Meijin\Desktop\Новая папка (4)\Various - Hardcore Nation 2009 (CD2).wav
Пиковый уровень 98.9 % Качество диапазона 99.9 % CRC теста A839B04C CRC копии A839B04C Копирование... OK
Ошибок не произошло
AccurateRip: сводка
Трек 1 точное извлечение (доверие 1) [120E1F30]Трек 2 точное извлечение (доверие 1) [E37E694B]Трек 3 точное извлечение (доверие 1) [19DD6E68]Трек 4 точное извлечение (доверие 1) [0DEF9DD2]Трек 5 точное извлечение (доверие 1) [3082AFFE]Трек 6 точное извлечение (доверие 1) [37E64381]Трек 7 точное извлечение (доверие 1) [B3A17364]Трек 8 точное извлечение (доверие 1) [BB6DFB39]Трек 9 точное извлечение (доверие 1) [ED49897A]Трек 10 точное извлечение (доверие 1) [9658581B]Трек 11 точное извлечение (доверие 1) [D20764D5]Трек 12 точное извлечение (доверие 1) [9319CCA9]Трек 13 точное извлечение (доверие 1) [C69FE638]Трек 14 точное извлечение (доверие 1) [C41E7B5E]Трек 15 точное извлечение (доверие 1) [17A1B617]Трек 16 точное извлечение (доверие 1) [3402F664]Трек 17 точное извлечение (доверие 1) [06D58DED]Трек 18 точное извлечение (доверие 1) [DF67168A]Трек 19 точное извлечение (доверие 1) [C9C199AD]Трек 20 точное извлечение (доверие 1) [8E456E8E]
Все треки извлечены точно
Конец отчёта

Лог создания рипа CD3

Exact Audio Copy V0.99 prebeta 4 from 23. January 2008
Отчёт EAC об извлечении, выполненном 9. февраля 2013, 20:33
Various / Hardcore Nation 2009 (CD3)
Дисковод: Optiarc DVD RW AD-7261S Adapter: 1 ID: 1
Режим чтения : ДостоверностьИспользование точного потока : ДаОтключение кэша аудио : ДаИспользование указателей C2 : Нет
Коррекция смещения при чтении : 48Способность читать области Lead-in и Lead-out : НетЗаполнение пропущенных сэмплов тишиной : ДаУдаление блоков с тишиной в начале и конце : НетПри вычислениях CRC использовались нулевые сэмплы : ДаИнтерфейс : Встроенный Win32-интерфейс для Win NT/2000
Выходной формат : Внутренние WAV-операцииФормат сэмплов : 44.100 Гц; 16 бит; стерео
TOC извлечённого CD
Трек | Старт | Длительность | Начальный сектор | Конечный сектор --------------------------------------------------------------------- 1 | 0:00.00 | 4:52.27 | 0 | 21926 2 | 4:52.27 | 3:37.40 | 21927 | 38241 3 | 8:29.67 | 3:47.51 | 38242 | 55317 4 | 12:17.43 | 4:09.27 | 55318 | 74019 5 | 16:26.70 | 3:36.63 | 74020 | 90282 6 | 20:03.58 | 3:36.52 | 90283 | 106534 7 | 23:40.35 | 4:41.62 | 106535 | 127671 8 | 28:22.22 | 4:41.50 | 127672 | 148796 9 | 33:03.72 | 4:30.68 | 148797 | 169114 10 | 37:34.65 | 4:33.47 | 169115 | 189636 11 | 42:08.37 | 4:03.71 | 189637 | 207932 12 | 46:12.33 | 5:46.64 | 207933 | 233946 13 | 51:59.22 | 3:25.72 | 233947 | 249393 14 | 55:25.19 | 4:58.12 | 249394 | 271755 15 | 60:23.31 | 3:28.46 | 271756 | 287401 16 | 63:52.02 | 3:50.20 | 287402 | 304671 17 | 67:42.22 | 3:25.74 | 304672 | 320120 18 | 71:08.21 | 3:50.29 | 320121 | 337399 19 | 74:58.50 | 2:28.65 | 337400 | 348564
Характеристики диапазона извлечения и сообщения об ошибках
Выбранный диапазон
Имя файла C:\Users\Meijin\Desktop\Новая папка (4)\Various - Hardcore Nation 2009 (CD3).wav
Пиковый уровень 98.9 % Качество диапазона 100.0 % CRC теста 05D85E9E CRC копии 05D85E9E Копирование... OK
Ошибок не произошло
AccurateRip: сводка
Трек 1 точное извлечение (доверие 1) [51EB7B41]Трек 2 точное извлечение (доверие 1) [8AA01783]Трек 3 точное извлечение (доверие 1) [509298F8]Трек 4 точное извлечение (доверие 1) [4FE68D63]Трек 5 точное извлечение (доверие 1) [657A37E9]Трек 6 точное извлечение (доверие 1) [3DF01983]Трек 7 точное извлечение (доверие 1) [A5647B91]Трек 8 точное извлечение (доверие 1) [4E83ACAF]Трек 9 точное извлечение (доверие 1) [BE4648C8]Трек 10 точное извлечение (доверие 1) [2801C75B]Трек 11 точное извлечение (доверие 1) [49CF16ED]Трек 12 точное извлечение (доверие 1) [A2D9C986]Трек 13 точное извлечение (доверие 1) [77F5FE8A]Трек 14 точное извлечение (доверие 1) [9F48C533]Трек 15 точное извлечение (доверие 1) [CFB3BED9]Трек 16 точное извлечение (доверие 1) [7D53AFDE]Трек 17 точное извлечение (доверие 1) [E8EB94F5]Трек 18 точное извлечение (доверие 1) [256B4E92]Трек 19 точное извлечение (доверие 1) [6AB9BE5A]
Все треки извлечены точно
Конец отчёта

_________________
Показать сообщения:    

Текущее время: Сегодня 09:39

Часовой пояс: GMT



Вы не можете начинать темы
Вы не можете отвечать на сообщения
Вы не можете редактировать свои сообщения
Вы не можете удалять свои сообщения
Вы не можете голосовать в опросах
Вы не можете прикреплять файлы к сообщениям
Вы не можете скачивать файлы
Наши партнеры: интернет магазин Ивановского трикотажа textilla.ru